<?xml version="1.0" encoding="UTF-8"?>
<svg xmlns="http://www.w3.org/2000/svg" xmlns:xlink="http://www.w3.org/1999/xlink" version="1.2" >
<font id="Blogger Sans">
<font-face  font-family="Blogger Sans" units-per-em="1000" ascent="725" descent="-240" font-style="normal" font-weight="250" font-stretch="" cap-height="705" x-height="505" underline-position="-133" underline-thickness="20" />
<missing-glyph  horiz-adv-x="760" d="" />
<glyph glyph-name="NULL" d="" />
<glyph glyph-name="CR" unicode="&#xd;" horiz-adv-x="250" d="" />
<glyph glyph-name="space" unicode="&#x20;" horiz-adv-x="300" d="" />
<glyph glyph-name="exclam" unicode="&#x21;" horiz-adv-x="227" d="M83 202 L73 675 C73 696 91 715 113 715 C135 715 153 696 153 675 L143 202 C143 185 129 170 113 170 C96 170 83 185 83 202 L83 202 Z M168 45 C168 15 144 -10 115 -10 C85 -10 61 15 61 45 C61 74 85 98 115 98 C144 98 168 74 168 45 L168 45 Z " />
<glyph glyph-name="quotedbl" unicode="&#x22;" horiz-adv-x="342" d="M56 485 L85 728 C89 747 110 761 132 758 C155 754 171 735 166 716 L110 475 C107 460 92 449 78 451 C63 454 54 470 56 485 L56 485 Z M186 485 L215 728 C219 747 240 761 262 758 C285 754 301 735 296 716 L240 475 C237 460 222 449 208 451 C193 454 184 470 186 485 L186 485 Z " />
<glyph glyph-name="numbersign" unicode="&#x23;" horiz-adv-x="541" d="M111 483 L171 483 L216 684 C221 702 235 712 253 712 C271 710 287 694 286 675 C286 673 286 670 285 667 L244 483 L351 483 L396 684 C401 702 415 712 433 712 C452 710 467 694 466 675 C466 673 466 670 465 667 L424 483 L459 483 C479 483 498 466 498 444 C498 422 481 405 459 405 L407 405 L384 303 L429 303 C449 303 468 286 468 264 C468 242 451 225 429 225 L367 225 L322 22 C317 3 303 -7 285 -7 C266 -5 251 11 251 31 L253 40 L294 225 L187 225 L142 22 C137 3 123 -7 105 -7 C87 -5 71 11 71 31 L73 40 L114 225 L81 225 C59 225 42 242 42 264 C42 286 61 303 81 303 L131 303 L154 405 L111 405 C89 405 72 422 72 444 C72 466 91 483 111 483 L111 483 Z M227 405 L204 303 L311 303 L334 405 L227 405 L227 405 Z " />
<glyph glyph-name="dollar" unicode="&#x24;" horiz-adv-x="500" d="M225 -28 L225 20 C157 22 49 42 49 94 C49 114 65 133 86 133 C112 133 149 101 225 98 L225 326 C138 355 50 388 50 507 C50 612 117 675 225 684 L225 733 C225 747 237 759 251 759 C265 759 277 747 277 733 L277 684 C335 680 423 665 423 617 C423 597 408 579 383 579 C354 579 333 601 277 606 L277 391 C363 362 452 328 452 210 C452 102 379 36 277 22 L277 -28 C277 -42 265 -54 251 -54 C237 -54 225 -42 225 -28 L225 -28 Z M368 202 C368 260 336 282 311 294 C300 299 289 304 277 308 L277 101 C337 111 368 146 368 202 L368 202 Z M191 423 C201 418 213 413 225 408 L225 605 C175 598 133 574 133 513 C133 456 168 434 191 423 L191 423 Z " />
<glyph glyph-name="percent" unicode="&#x25;" horiz-adv-x="703" d="M196 396 C105 396 55 466 55 556 C55 646 104 716 196 716 C288 716 337 646 337 556 C337 466 288 396 196 396 L196 396 Z M196 458 C246 458 269 494 269 558 C269 618 246 654 196 654 C146 654 123 618 123 558 C123 494 146 458 196 458 L196 458 Z M507 -10 C415 -10 366 60 366 150 C366 240 415 310 507 310 C598 310 648 240 648 150 C648 60 599 -10 507 -10 L507 -10 Z M507 52 C557 52 580 88 580 152 C580 212 557 248 507 248 C457 248 434 212 434 152 C434 88 457 52 507 52 L507 52 Z M552 664 L215 17 C206 0 189 -6 172 -2 C154 5 144 25 149 44 L153 52 L490 698 C499 714 516 720 533 715 C550 709 561 689 555 671 C555 669 554 666 552 664 L552 664 Z " />
<glyph glyph-name="ampersand" unicode="&#x26;" horiz-adv-x="642" d="M595 30 C595 9 579 -10 557 -10 C541 -10 533 -2 522 11 L458 87 C408 36 345 -10 254 -10 C131 -10 47 72 47 180 C47 288 124 349 197 393 C148 446 115 499 115 557 C115 654 196 713 285 713 C375 713 447 648 447 583 C447 562 428 545 409 545 C391 545 378 558 373 575 C364 608 333 642 288 642 C238 642 193 609 193 555 C193 511 237 464 272 422 L457 209 C481 246 500 287 517 325 C527 349 536 350 552 350 C571 350 589 333 589 312 C589 271 543 196 508 147 L586 54 C592 47 595 39 595 30 L595 30 Z M409 146 L243 336 C185 304 124 260 124 188 C124 121 173 62 248 62 C317 62 366 98 409 146 L409 146 Z " />
<glyph glyph-name="quotesingle" unicode="&#x27;" horiz-adv-x="222" d="M56 485 L85 728 C89 747 110 761 132 758 C155 754 171 735 166 716 L110 475 C107 460 92 449 78 451 C63 454 54 470 56 485 L56 485 Z " />
<glyph glyph-name="parenleft" unicode="&#x28;" horiz-adv-x="276" d="M144 221 C144 85 173 -52 240 -171 C245 -180 250 -189 250 -198 C250 -219 238 -240 212 -240 C199 -240 187 -234 179 -221 C99 -89 65 71 65 221 C65 371 99 531 179 663 C187 676 199 682 212 682 C238 682 250 661 250 640 C250 631 245 622 240 613 C173 494 144 357 144 221 L144 221 Z " />
<glyph glyph-name="parenright" unicode="&#x29;" horiz-adv-x="275" d="M131 221 C131 357 102 494 35 613 C30 622 25 631 25 640 C25 661 37 682 63 682 C76 682 88 676 96 663 C176 531 210 371 210 221 C210 71 176 -89 96 -221 C88 -234 76 -240 63 -240 C37 -240 25 -219 25 -198 C25 -189 30 -180 35 -171 C102 -52 131 85 131 221 L131 221 Z " />
<glyph glyph-name="asterisk" unicode="&#x2a;" horiz-adv-x="495" d="M437 595 C445 573 429 556 411 550 L295 518 L370 423 C382 408 385 386 364 372 C344 357 324 367 314 381 L247 484 C225 452 202 413 180 381 C169 367 150 359 130 372 C111 385 113 408 124 423 L200 518 L83 550 C65 556 50 573 57 595 C65 619 86 623 104 617 C142 603 180 586 218 573 L212 695 C211 713 222 732 247 732 C272 732 283 713 282 695 L276 573 C314 586 352 603 390 617 C408 623 429 619 437 595 L437 595 Z " />
<glyph glyph-name="plus" unicode="&#x2b;" horiz-adv-x="500" d="M211 145 L211 315 L51 315 C29 315 12 332 12 354 C12 376 31 393 51 393 L211 393 L211 563 C211 583 228 602 250 602 C272 602 289 585 289 563 L289 393 L449 393 C469 393 488 376 488 354 C488 332 471 315 449 315 L289 315 L289 145 C289 123 272 106 250 106 C228 106 211 125 211 145 L211 145 Z " />
<glyph glyph-name="comma" unicode="&#x2c;" horiz-adv-x="230" d="M168 45 C168 -22 119 -119 92 -119 C82 -119 73 -115 73 -102 C73 -70 98 -52 110 -10 C82 -7 61 16 61 45 C61 74 85 98 115 98 C144 98 168 74 168 45 L168 45 Z " />
<glyph glyph-name="hyphen" unicode="&#x2d;" horiz-adv-x="399" d="M360 295 C360 275 344 259 324 259 L75 259 C54 259 38 275 38 295 C38 315 54 332 75 332 L324 332 C344 332 360 315 360 295 L360 295 Z " />
<glyph glyph-name="period" unicode="&#x2e;" horiz-adv-x="230" d="M168 45 C168 15 144 -10 115 -10 C85 -10 61 15 61 45 C61 74 85 98 115 98 C144 98 168 74 168 45 L168 45 Z " />
<glyph glyph-name="slash" unicode="&#x2f;" horiz-adv-x="280" d="M303 707 L46 -18 C40 -36 22 -46 4 -43 C-16 -39 -29 -20 -26 1 C-26 3 -25 6 -24 9 L233 733 C239 751 257 760 275 757 C294 753 308 734 305 714 C305 712 304 709 303 707 L303 707 Z " />
<glyph glyph-name="zero" unicode="0" horiz-adv-x="500" d="M250 652 C163 652 128 590 128 504 L128 198 C128 118 171 64 250 64 C329 64 372 118 372 198 L372 504 C372 590 337 652 250 652 L250 652 Z M250 725 C390 725 451 622 451 496 L451 198 C451 82 380 -10 250 -10 C120 -10 49 82 49 198 L49 496 C49 622 110 725 250 725 L250 725 Z " />
<glyph glyph-name="one" unicode="1" horiz-adv-x="500" d="M271 31 L271 612 L148 533 C134 524 118 513 104 513 C87 513 69 529 69 547 C69 561 75 574 87 582 L284 708 C292 713 299 715 308 715 C332 715 351 696 351 672 L351 31 C351 10 333 -9 311 -9 C289 -9 271 10 271 31 L271 31 Z " />
<glyph glyph-name="two" unicode="2" horiz-adv-x="500" d="M454 38 C454 17 437 0 415 0 L86 0 C62 0 45 18 45 42 C45 55 46 70 51 81 C105 210 231 297 317 396 C346 429 372 471 372 523 C372 596 330 652 248 652 C210 652 180 645 153 633 C128 622 111 605 93 605 C74 605 55 620 55 642 C55 658 64 669 81 680 C133 713 186 725 249 725 C376 725 450 640 450 534 C450 451 420 396 378 349 C296 257 190 182 140 76 L415 76 C437 76 454 59 454 38 L454 38 Z " />
<glyph glyph-name="three" unicode="3" horiz-adv-x="500" d="M416 632 L248 415 C363 412 448 343 448 219 C448 116 389 -9 245 -9 C204 -9 52 1 52 65 C52 85 68 103 89 103 C96 103 103 101 110 97 C139 80 171 63 223 63 C335 63 369 144 369 215 C369 307 311 344 233 344 C215 344 201 342 190 338 C184 336 182 332 173 332 C147 332 128 367 147 393 L326 626 L104 626 C82 626 65 643 65 665 C65 687 82 706 104 706 L383 706 C408 706 426 688 426 661 C426 650 423 641 416 632 L416 632 Z " />
<glyph glyph-name="four" unicode="4" horiz-adv-x="500" d="M404 149 L404 30 C404 8 387 -9 365 -9 C343 -9 326 8 326 30 L326 149 L76 149 C52 149 35 169 35 192 C35 195 38 209 43 219 L235 700 C241 714 255 723 269 723 C288 723 308 705 308 683 C308 679 308 674 306 670 L127 224 L326 224 L326 420 C326 442 343 459 365 459 C386 459 404 442 404 420 L404 224 L447 224 C468 224 484 207 484 187 C484 166 468 149 447 149 L404 149 L404 149 Z " />
<glyph glyph-name="five" unicode="5" horiz-adv-x="500" d="M448 225 C448 113 389 -9 246 -9 C205 -9 52 1 52 65 C52 85 68 103 89 103 C96 103 103 101 110 97 C137 81 170 63 223 63 C335 63 369 142 369 221 C369 321 314 368 243 368 C214 368 191 360 170 348 C148 336 136 320 116 320 C94 320 75 338 76 363 L86 662 C87 690 110 706 132 706 L373 706 C395 706 419 696 419 668 C419 641 395 631 373 631 L157 631 L149 415 C178 432 210 439 245 439 C364 439 448 359 448 225 L448 225 Z " />
<glyph glyph-name="six" unicode="6" horiz-adv-x="500" d="M123 390 C162 425 213 437 258 437 C369 437 459 364 459 220 C459 95 391 -10 251 -10 C88 -10 41 133 41 332 C41 579 113 715 261 715 C295 715 415 708 415 660 C415 642 399 623 379 623 C373 623 366 625 357 628 C335 635 306 643 274 643 C152 643 123 529 123 390 L123 390 Z M121 305 L121 281 C121 170 144 68 255 68 C349 68 380 141 380 218 C380 316 330 361 255 361 C200 361 148 337 121 305 L121 305 Z " />
<glyph glyph-name="seven" unicode="7" horiz-adv-x="500" d="M450 665 C450 659 449 650 446 643 L197 16 C191 0 177 -9 161 -9 C141 -9 123 5 121 26 C121 32 122 39 124 45 L359 627 L88 627 C68 627 50 645 50 666 C50 689 67 706 88 706 L408 706 C431 706 450 688 450 665 L450 665 Z " />
<glyph glyph-name="eight" unicode="8" horiz-adv-x="500" d="M471 195 C471 77 380 -10 250 -10 C122 -10 28 74 28 191 C28 280 82 336 151 373 C95 407 53 459 53 535 C53 645 142 714 249 714 C359 714 445 641 445 537 C445 469 409 417 348 379 C417 342 471 286 471 195 L471 195 Z M368 533 C368 598 316 643 250 643 C183 643 131 598 131 533 C131 465 188 422 252 410 C316 424 368 469 368 533 L368 533 Z M392 196 C392 278 321 324 247 338 C169 322 107 271 107 195 C107 119 169 63 250 63 C333 63 392 121 392 196 L392 196 Z " />
<glyph glyph-name="nine" unicode="9" horiz-adv-x="500" d="M377 315 C338 280 287 268 242 268 C132 268 41 338 41 487 C41 610 103 715 245 715 C409 715 459 575 459 365 C459 117 389 -10 239 -10 C204 -10 85 -3 85 45 C85 63 101 82 121 82 C127 82 134 80 143 77 C165 70 194 62 226 62 C348 62 377 176 377 315 L377 315 Z M379 400 L379 424 C379 544 343 637 242 637 C152 637 120 563 120 486 C120 389 170 344 246 344 C301 344 352 368 379 400 L379 400 Z " />
<glyph glyph-name="colon" unicode="&#x3a;" horiz-adv-x="230" d="M168 45 C168 15 144 -10 115 -10 C85 -10 61 15 61 45 C61 74 85 98 115 98 C144 98 168 74 168 45 L168 45 Z M168 345 C168 315 144 290 115 290 C85 290 61 315 61 345 C61 374 85 398 115 398 C144 398 168 374 168 345 L168 345 Z " />
<glyph glyph-name="semicolon" unicode="&#x3b;" horiz-adv-x="230" d="M168 45 C168 -22 119 -119 92 -119 C82 -119 73 -115 73 -102 C73 -70 98 -52 110 -10 C82 -7 61 16 61 45 C61 74 85 98 115 98 C144 98 168 74 168 45 L168 45 Z M168 345 C168 315 144 290 115 290 C85 290 61 315 61 345 C61 374 85 398 115 398 C144 398 168 374 168 345 L168 345 Z " />
<glyph glyph-name="less" unicode="&#x3c;" horiz-adv-x="625" d="M529 172 C545 164 557 150 557 136 C557 109 530 85 505 98 L109 303 C87 316 68 324 68 352 C68 381 86 388 109 402 L505 607 C532 616 557 596 557 569 C557 554 545 540 529 532 L171 352 L529 172 L529 172 Z " />
<glyph glyph-name="equal" unicode="&#x3d;" horiz-adv-x="500" d="M91 303 L409 303 C429 303 448 286 448 264 C448 242 431 225 409 225 L91 225 C69 225 52 242 52 264 C52 286 71 303 91 303 L91 303 Z M91 483 L409 483 C429 483 448 466 448 444 C448 422 431 405 409 405 L91 405 C69 405 52 422 52 444 C52 466 71 483 91 483 L91 483 Z " />
<glyph glyph-name="greater" unicode="&#x3e;" horiz-adv-x="625" d="M454 352 L96 532 C80 540 68 554 68 569 C68 596 95 620 120 607 L516 402 C539 388 557 381 557 352 C557 324 538 316 516 303 L120 98 C95 85 68 109 68 136 C68 150 80 164 96 172 L454 352 L454 352 Z " />
<glyph glyph-name="question" unicode="&#x3f;" horiz-adv-x="462" d="M273 249 C268 238 267 223 267 210 C267 189 249 170 227 170 C205 170 187 189 187 210 C187 223 188 238 193 249 C215 310 262 349 299 396 C328 429 354 471 354 523 C354 596 312 652 230 652 C192 652 162 645 135 633 C110 622 93 605 75 605 C56 605 37 620 37 642 C37 658 46 669 63 680 C115 713 168 725 231 725 C358 725 432 640 432 534 C432 451 402 396 360 349 C330 314 291 287 273 249 L273 249 Z M281 45 C281 15 257 -10 228 -10 C198 -10 174 15 174 45 C174 74 198 98 228 98 C257 98 281 74 281 45 L281 45 Z " />
<glyph glyph-name="at" unicode="&#x40;" horiz-adv-x="744" d="M512 14 C477 -1 418 -13 362 -13 C177 -13 64 119 64 313 C64 502 172 635 370 635 C573 635 680 494 680 321 C680 227 648 158 559 158 C515 158 486 174 467 201 C430 162 395 148 357 148 C272 148 224 219 224 313 C224 411 276 478 374 478 C472 478 501 412 510 318 C513 282 519 230 559 230 C592 230 602 264 602 314 C602 456 523 563 371 563 C222 563 142 460 142 311 C142 162 222 59 376 59 C447 59 477 81 502 88 C520 93 543 92 550 66 C557 38 535 24 512 14 L512 14 Z M432 320 C429 356 426 406 370 406 C322 406 302 370 302 310 C302 252 321 218 364 218 C391 218 417 231 442 255 C437 275 434 297 432 320 L432 320 Z " />
<glyph glyph-name="A" unicode="A" horiz-adv-x="549" d="M105 20 C99 2 81 -10 67 -10 C44 -10 25 6 25 30 C25 34 26 42 27 45 L222 662 C231 692 245 715 274 715 C304 715 317 693 327 662 L522 45 C523 42 524 34 524 30 C524 6 506 -10 482 -10 C467 -10 448 2 443 20 L400 159 L147 159 L105 20 L105 20 Z M171 237 L377 237 L274 576 L171 237 L171 237 Z " />
<glyph glyph-name="B" unicode="B" horiz-adv-x="542" d="M153 405 L268 405 C333 405 405 443 405 524 C405 577 375 627 285 627 L153 627 L153 405 L153 405 Z M271 327 L153 327 L153 78 L275 78 C375 78 424 127 424 199 C424 282 359 327 271 327 L271 327 Z M286 0 L121 0 C94 0 73 22 73 48 L73 657 C73 684 95 705 121 705 L290 705 C420 705 485 616 485 523 C485 437 430 394 356 363 C423 342 504 312 504 200 C504 87 421 0 286 0 L286 0 Z " />
<glyph glyph-name="C" unicode="C" horiz-adv-x="482" d="M45 246 L45 460 C45 614 116 715 270 715 C361 715 447 676 447 629 C447 610 432 594 411 594 C397 594 391 601 375 611 C345 632 314 642 275 642 C162 642 125 572 125 460 L125 246 C125 134 162 64 275 64 C314 64 345 74 375 95 C392 105 397 112 411 112 C432 112 447 96 447 77 C447 30 361 -9 270 -9 C116 -9 45 92 45 246 L45 246 Z " />
<glyph glyph-name="D" unicode="D" horiz-adv-x="554" d="M508 264 C508 127 439 0 234 0 L121 0 C95 0 73 22 73 48 L73 658 C73 684 95 706 121 706 L234 706 C438 706 508 585 508 451 L508 264 L508 264 Z M428 264 L428 451 C428 550 381 628 251 628 L153 628 L153 78 L251 78 C383 78 428 161 428 264 L428 264 Z " />
<glyph glyph-name="E" unicode="E" horiz-adv-x="474" d="M441 41 C441 18 423 0 401 0 L136 0 C103 0 73 11 73 47 L73 658 C73 681 93 705 120 705 L391 705 C413 705 431 687 431 665 C431 643 413 627 391 627 L153 627 L153 393 L372 393 C392 393 411 376 411 354 C411 332 394 315 372 315 L153 315 L153 78 L401 78 C422 78 441 61 441 41 L441 41 Z " />
<glyph glyph-name="F" unicode="F" horiz-adv-x="474" d="M153 315 L153 30 C153 9 135 -10 113 -10 C91 -10 73 9 73 30 L73 658 C73 681 93 705 120 705 L391 705 C413 705 431 687 431 665 C431 643 413 627 391 627 L153 627 L153 393 L372 393 C392 393 411 376 411 354 C411 332 394 315 372 315 L153 315 L153 315 Z " />
<glyph glyph-name="G" unicode="G" horiz-adv-x="520" d="M125 460 L125 246 C125 134 162 64 275 64 C323 64 358 78 388 101 L388 316 L291 316 C271 316 253 333 253 354 C253 375 271 392 291 392 L410 392 C442 392 467 378 467 346 L467 107 C467 26 359 -9 270 -9 C116 -9 45 92 45 246 L45 460 C45 614 116 715 270 715 C361 715 447 676 447 629 C447 610 432 594 411 594 C397 594 391 601 375 611 C345 632 314 642 275 642 C162 642 125 572 125 460 L125 460 Z " />
<glyph glyph-name="H" unicode="H" horiz-adv-x="580" d="M506 31 C506 9 488 -10 466 -10 C445 -10 426 9 426 31 L426 314 L153 314 L153 31 C153 9 135 -10 113 -10 C91 -10 73 9 73 31 L73 675 C73 696 91 715 113 715 C135 715 153 696 153 675 L153 392 L426 392 L426 675 C426 696 445 715 466 715 C487 715 506 696 506 675 L506 31 L506 31 Z " />
<glyph glyph-name="I" unicode="I" horiz-adv-x="227" d="M73 30 L73 675 C73 696 91 715 113 715 C135 715 153 696 153 675 L153 30 C153 9 135 -10 113 -10 C91 -10 73 9 73 30 L73 30 Z " />
<glyph glyph-name="J" unicode="J" horiz-adv-x="385" d="M312 675 L312 225 C312 79 265 -10 110 -10 C82 -10 25 -7 25 35 C25 60 45 74 60 74 C71 74 90 67 121 67 C213 67 232 128 232 225 L232 675 C232 697 249 715 272 715 C293 715 312 696 312 675 L312 675 Z " />
<glyph glyph-name="K" unicode="K" horiz-adv-x="498" d="M420 9 L203 324 L153 263 L153 31 C153 9 135 -10 113 -10 C91 -10 73 9 73 31 L73 675 C73 696 91 715 113 715 C135 715 153 696 153 675 L153 384 L406 696 C413 706 428 715 442 715 C457 715 479 703 477 675 C476 664 473 657 468 650 L253 386 L486 52 C490 45 491 40 491 33 C491 14 483 -10 454 -10 C439 -10 429 -4 420 9 L420 9 Z " />
<glyph glyph-name="L" unicode="L" horiz-adv-x="448" d="M438 39 C438 17 421 0 400 0 L118 0 C94 0 73 20 73 45 L73 675 C73 696 91 715 113 715 C135 715 153 696 153 675 L153 77 L400 77 C420 77 438 60 438 39 L438 39 Z " />
<glyph glyph-name="M" unicode="M" horiz-adv-x="699" d="M628 673 L628 29 C628 8 610 -10 589 -10 C567 -10 548 8 548 29 L548 516 L387 172 C379 156 365 148 348 148 C332 148 318 156 310 172 L149 516 L149 29 C149 8 130 -10 107 -10 C86 -10 69 8 69 29 L69 673 C69 697 87 715 111 715 C131 715 145 706 154 689 L349 271 L544 690 C554 708 569 715 586 715 C610 715 628 696 628 673 L628 673 Z " />
<glyph glyph-name="N" unicode="N" horiz-adv-x="600" d="M482 -10 C466 -10 449 -1 441 13 L153 546 L153 31 C153 9 134 -10 112 -10 C90 -10 73 9 73 31 L73 671 C73 696 91 715 116 715 C133 715 150 706 158 691 L446 159 L446 674 C446 696 465 715 487 715 C509 715 526 696 526 674 L526 34 C526 10 508 -10 482 -10 L482 -10 Z " />
<glyph glyph-name="O" unicode="O" horiz-adv-x="551" d="M275 -10 C122 -10 45 104 45 246 L45 460 C45 599 110 715 275 715 C440 715 505 599 505 460 L505 246 C505 104 428 -10 275 -10 L275 -10 Z M275 637 C165 637 125 566 125 460 L125 246 C125 141 172 68 275 68 C378 68 425 141 425 246 L425 460 C425 566 385 637 275 637 L275 637 Z " />
<glyph glyph-name="P" unicode="P" horiz-adv-x="530" d="M268 260 L153 260 L153 32 C153 10 135 -10 113 -10 C92 -10 73 9 73 32 L73 657 C73 683 95 705 121 705 L268 705 C434 705 493 598 493 481 C493 339 405 260 268 260 L268 260 Z M153 627 L153 338 L268 338 C363 338 413 384 413 482 C413 554 386 627 268 627 L153 627 L153 627 Z " />
<glyph glyph-name="Q" unicode="Q" horiz-adv-x="551" d="M383 -177 C295 -177 244 -109 238 -7 C110 9 45 116 45 246 L45 460 C45 599 110 715 275 715 C440 715 505 599 505 460 L505 246 C505 117 442 12 317 -6 C319 -79 347 -105 396 -105 C406 -105 419 -104 425 -104 C448 -104 464 -118 464 -141 C464 -176 429 -177 383 -177 L383 -177 Z M275 637 C165 637 125 566 125 460 L125 246 C125 141 172 68 275 68 C378 68 425 141 425 246 L425 460 C425 566 385 637 275 637 L275 637 Z " />
<glyph glyph-name="R" unicode="R" horiz-adv-x="575" d="M511 505 C511 399 451 334 356 315 L516 52 C519 46 521 37 521 29 C521 8 494 -9 478 -9 C464 -9 452 -2 445 10 L268 310 L153 310 L153 32 C153 10 134 -10 112 -10 C91 -10 73 9 73 32 L73 657 C73 683 94 705 119 705 L293 705 C458 705 511 604 511 505 L511 505 Z M431 505 C431 564 405 627 289 627 L153 627 L153 387 L295 387 C383 387 431 428 431 505 L431 505 Z " />
<glyph glyph-name="S" unicode="S" horiz-adv-x="486" d="M360 191 C360 256 328 279 303 292 C208 342 42 343 42 520 C42 641 120 715 244 715 C294 715 415 703 415 647 C415 627 400 609 375 609 C344 609 318 637 250 637 C186 637 125 612 125 525 C125 459 160 437 183 425 C279 375 444 373 444 198 C444 66 351 -10 225 -10 C161 -10 41 10 41 64 C41 84 57 103 77 103 C105 103 148 68 226 68 C315 68 360 113 360 191 L360 191 Z " />
<glyph glyph-name="T" unicode="T" horiz-adv-x="483" d="M201 30 L201 627 L65 627 C42 627 25 645 25 666 C25 683 43 705 65 705 L417 705 C438 705 458 688 458 666 C458 645 439 627 417 627 L281 627 L281 30 C281 9 263 -10 241 -10 C219 -10 201 9 201 30 L201 30 Z " />
<glyph glyph-name="U" unicode="U" horiz-adv-x="572" d="M507 230 C507 91 425 -10 286 -10 C144 -10 65 92 65 230 L65 673 C65 697 83 715 106 715 C127 715 145 696 145 673 L145 230 C145 134 190 68 286 68 C382 68 426 136 426 230 L426 673 C426 695 443 715 465 715 C489 715 507 695 507 673 L507 230 L507 230 Z " />
<glyph glyph-name="V" unicode="V" horiz-adv-x="529" d="M95 685 L264 129 L433 685 C438 703 457 715 472 715 C496 715 514 699 514 675 C514 671 513 663 512 660 L317 43 C307 12 294 -10 264 -10 C235 -10 221 13 212 43 L17 660 C16 663 15 671 15 675 C15 699 34 715 57 715 C71 715 89 703 95 685 L95 685 Z " />
<glyph glyph-name="W" unicode="W" horiz-adv-x="776" d="M503 47 L388 550 L272 46 C265 20 252 -10 219 -10 C190 -10 172 16 165 46 L16 665 C15 665 15 676 15 676 C15 698 39 711 60 711 C76 711 91 702 96 682 L220 149 L336 657 C345 694 354 715 388 715 C420 715 431 692 439 657 L555 149 L679 682 C685 700 697 711 713 711 C734 711 761 700 761 675 C761 673 760 669 759 664 L610 46 C603 17 587 -10 557 -10 C527 -10 510 18 503 47 L503 47 Z " />
<glyph glyph-name="X" unicode="X" horiz-adv-x="500" d="M250 303 L91 19 C84 6 72 -10 53 -10 C33 -10 15 10 15 31 C15 39 18 48 21 53 L203 367 L36 654 C33 660 31 669 31 676 C31 696 48 715 68 715 C86 715 101 698 111 680 L250 431 L389 680 C398 695 413 715 433 715 C452 715 469 697 469 675 C469 668 467 660 464 654 L297 367 L479 53 C482 48 485 39 485 31 C485 10 467 -10 448 -10 C429 -10 417 5 409 19 L250 303 L250 303 Z " />
<glyph glyph-name="Y" unicode="Y" horiz-adv-x="476" d="M238 -10 C215 -10 197 9 197 32 L197 277 L19 655 C17 660 15 668 15 674 C15 696 35 715 56 715 C68 715 81 710 87 699 L238 370 L389 699 C395 710 408 715 420 715 C441 715 461 696 461 674 C461 668 459 660 457 655 L279 275 L279 32 C279 10 261 -10 238 -10 L238 -10 Z " />
<glyph glyph-name="Z" unicode="Z" horiz-adv-x="484" d="M454 41 C454 18 436 0 414 0 L71 0 C47 0 29 20 29 44 C29 53 35 69 39 76 L347 625 L70 625 C48 625 31 642 31 665 C31 686 48 705 70 705 L409 705 C434 705 452 686 452 662 C452 650 447 640 442 631 L132 80 L414 80 C435 80 454 63 454 41 L454 41 Z " />
<glyph glyph-name="bracketleft" unicode="&#x5b;" horiz-adv-x="294" d="M268 -83 C268 -112 241 -121 217 -121 L115 -121 C95 -121 77 -103 77 -83 L77 763 C77 791 101 801 129 801 L231 801 C249 801 268 784 268 764 C268 735 242 726 218 726 L156 726 L156 -46 L218 -46 C244 -46 268 -55 268 -83 L268 -83 Z " />
<glyph glyph-name="backslash" unicode="&#x5c;" horiz-adv-x="280" d="M-24 707 C-25 709 -26 712 -26 714 C-29 734 -15 753 4 757 C22 760 40 751 46 733 L303 9 C304 6 305 3 305 1 C308 -20 295 -39 275 -43 C257 -46 239 -36 233 -18 L-24 707 L-24 707 Z " />
<glyph glyph-name="bracketright" unicode="&#x5d;" horiz-adv-x="294" d="M216 -83 C216 -104 199 -121 178 -121 L76 -121 C51 -121 24 -112 24 -83 C24 -54 50 -46 75 -46 L137 -46 L137 726 L75 726 C51 726 24 734 24 764 C24 792 51 801 76 801 L178 801 C197 801 216 782 216 763 L216 -83 L216 -83 Z " />
<glyph glyph-name="asciicircum" unicode="&#x5e;" horiz-adv-x="326" d="M162 650 L57 520 C53 513 42 507 32 507 C14 507 2 518 2 534 C3 546 10 559 21 572 L132 708 C139 717 149 723 162 723 C175 723 185 717 192 708 L303 572 C314 559 321 546 322 534 C322 518 310 507 292 507 C282 507 271 513 267 520 L162 650 L162 650 Z " />
<glyph glyph-name="underscore" unicode="&#x5f;" horiz-adv-x="600" d="M5 -161 L595 -161 C615 -161 634 -178 634 -200 C634 -222 617 -239 595 -239 L5 -239 C-17 -239 -34 -222 -34 -200 C-34 -178 -15 -161 5 -161 L5 -161 Z " />
<glyph glyph-name="grave" unicode="&#x60;" horiz-adv-x="197" d="M95 705 L173 624 C177 619 178 614 178 609 C178 588 162 574 145 574 C132 574 124 581 113 592 L32 678 C28 683 27 690 27 695 C27 714 44 728 58 728 C76 728 81 718 95 705 L95 705 Z " />
<glyph glyph-name="a" unicode="a" horiz-adv-x="482" d="M322 338 C322 411 287 445 215 445 C180 445 161 436 139 424 C136 423 124 416 113 416 C94 416 86 434 85 449 C81 495 156 514 225 514 C350 514 400 444 400 312 L400 92 C400 72 406 62 418 62 C421 62 422 63 426 63 C445 63 455 46 455 29 C455 4 432 -5 410 -5 C377 -5 350 14 335 45 C297 10 252 -8 198 -8 C95 -8 45 53 45 143 L45 147 C45 245 103 295 221 295 C257 295 291 290 322 281 L322 338 L322 338 Z M220 229 C138 229 122 191 122 146 L122 142 C122 95 143 62 210 62 C253 62 287 76 322 106 L322 214 C289 224 250 229 220 229 L220 229 Z " />
<glyph glyph-name="b" unicode="b" horiz-adv-x="485" d="M152 396 L152 150 C152 96 192 64 257 64 C329 64 362 104 362 170 L362 358 C362 413 333 446 266 446 C216 446 180 427 152 396 L152 396 Z M74 150 L74 687 C74 707 88 725 113 725 C138 725 152 707 152 687 L152 473 C189 499 231 514 285 514 C399 514 440 446 440 358 L440 170 C440 70 379 -8 257 -8 C141 -8 74 62 74 150 L74 150 Z " />
<glyph glyph-name="c" unicode="c" horiz-adv-x="393" d="M45 176 L45 327 C45 430 99 511 224 511 C271 511 363 497 363 450 C363 432 348 416 329 416 C324 416 319 417 313 419 C289 431 267 442 232 442 C154 442 123 400 123 327 L123 176 C123 103 154 61 232 61 C267 61 289 72 313 84 C319 86 324 87 329 87 C348 87 363 71 363 53 C363 6 271 -8 224 -8 C99 -8 45 73 45 176 L45 176 Z " />
<glyph glyph-name="d" unicode="d" horiz-adv-x="488" d="M212 510 C245 510 287 503 323 491 L323 687 C323 708 337 725 362 725 C387 725 401 708 401 687 L401 114 C401 86 407 69 427 54 C431 48 434 43 434 34 C434 13 416 -1 399 -1 C376 -1 358 12 346 31 C302 9 254 -8 204 -8 C99 -8 45 69 45 181 L45 308 C45 427 85 510 212 510 L212 510 Z M323 114 L323 421 C290 435 246 442 222 442 C149 442 123 401 123 308 L123 181 C123 103 154 62 220 62 C252 62 291 73 325 91 C323 99 323 107 323 114 L323 114 Z " />
<glyph glyph-name="e" unicode="e" horiz-adv-x="435" d="M232 61 C274 61 301 73 336 89 C338 90 343 92 350 92 C370 92 385 75 385 57 C385 8 277 -8 223 -8 C110 -8 45 64 45 158 L45 345 C45 441 109 514 228 514 C339 514 394 450 394 351 C394 259 344 203 225 203 C195 203 158 206 123 212 L123 153 C123 97 160 61 232 61 L232 61 Z M317 351 C317 416 284 443 226 443 C161 443 123 408 123 352 L123 276 C160 271 208 269 228 269 C304 269 317 310 317 351 L317 351 Z " />
<glyph glyph-name="f" unicode="f" horiz-adv-x="329" d="M74 537 C74 664 149 721 249 725 C265 726 340 726 340 680 C340 657 322 643 302 643 C285 643 269 650 241 650 C182 650 152 602 152 545 L152 483 L256 483 C276 483 292 467 292 446 C292 425 276 409 256 409 L152 409 L152 33 C152 12 138 -5 113 -5 C88 -5 74 12 74 33 L74 537 L74 537 Z " />
<glyph glyph-name="g" unicode="g" horiz-adv-x="493" d="M231 514 C277 514 324 502 362 480 C384 521 420 538 442 538 C463 538 479 523 479 503 C479 493 475 486 472 483 C434 446 418 435 418 386 L418 324 C418 222 357 144 237 144 C207 144 181 148 158 157 C149 140 146 123 146 111 C146 76 178 67 200 67 L242 67 C356 67 442 20 442 -80 C442 -181 355 -243 237 -243 C124 -243 45 -186 45 -89 C45 -40 64 -2 98 31 C75 54 68 85 68 108 C68 132 76 163 106 190 C71 223 52 272 52 331 C52 435 111 514 231 514 L231 514 Z M340 385 C340 395 341 405 342 414 C311 433 278 444 241 444 C167 444 130 403 130 329 C130 261 162 216 237 216 C308 216 340 256 340 322 L340 385 L340 385 Z M202 -5 C185 -5 170 -3 157 0 C133 -21 123 -46 123 -78 C123 -138 162 -171 239 -171 C311 -171 364 -142 364 -82 C364 -29 324 -5 244 -5 L202 -5 L202 -5 Z " />
<glyph glyph-name="h" unicode="h" horiz-adv-x="507" d="M151 31 C151 9 135 -8 113 -8 C91 -8 74 9 74 31 L74 692 C74 712 90 731 112 731 C134 731 151 714 151 692 L151 472 C185 498 228 514 276 514 C383 514 432 445 432 348 L432 31 C432 9 414 -8 393 -8 C371 -8 354 9 354 31 L354 347 C354 408 329 441 267 441 C226 441 180 423 151 384 L151 31 L151 31 Z " />
<glyph glyph-name="i" unicode="i" horiz-adv-x="245" d="M170 668 C170 642 149 620 122 620 C95 620 74 642 74 668 C74 695 95 716 122 716 C149 716 170 695 170 668 L170 668 Z M161 31 C161 9 144 -8 122 -8 C100 -8 83 9 83 31 L83 472 C83 493 100 511 122 511 C144 511 161 493 161 472 L161 31 L161 31 Z " />
<glyph glyph-name="j" unicode="j" horiz-adv-x="245" d="M161 472 L161 -15 C161 -120 110 -189 20 -202 C12 -203 7 -203 1 -203 C-15 -203 -28 -193 -32 -177 C-39 -150 -17 -137 -2 -134 C52 -122 83 -92 83 -19 L83 472 C83 493 100 511 122 511 C144 511 161 493 161 472 L161 472 Z M170 668 C170 642 149 620 122 620 C95 620 74 642 74 668 C74 695 95 716 122 716 C149 716 170 695 170 668 L170 668 Z " />
<glyph glyph-name="k" unicode="k" horiz-adv-x="439" d="M152 686 L152 313 L333 501 C338 507 348 510 357 510 C378 510 394 494 394 474 C394 464 391 455 384 448 L237 298 L406 48 C410 42 412 32 412 25 C411 5 395 -8 375 -8 C362 -8 351 -2 343 11 L188 247 L152 210 L152 31 C152 9 135 -8 113 -8 C91 -8 74 9 74 31 L74 686 C74 708 91 725 113 725 C135 725 152 708 152 686 L152 686 Z " />
<glyph glyph-name="l" unicode="l" horiz-adv-x="228" d="M74 94 L74 686 C74 707 91 725 113 725 C135 725 152 708 152 686 L152 94 C152 72 154 59 166 47 C169 43 173 36 173 28 C173 8 157 -8 137 -8 C112 -8 74 4 74 94 L74 94 Z " />
<glyph glyph-name="m" unicode="m" horiz-adv-x="778" d="M625 31 L625 342 C625 398 595 442 534 442 C491 442 448 419 424 389 C427 375 429 360 429 344 L429 31 C429 10 416 -7 390 -7 C364 -7 351 10 351 31 L351 321 C351 392 339 442 268 442 C224 442 180 423 152 402 C154 390 155 380 155 371 L155 31 C155 10 142 -7 116 -7 C90 -7 77 10 77 31 L77 371 C77 426 68 426 59 441 C57 445 52 451 52 461 C52 481 68 496 89 496 C106 496 119 485 129 469 C173 497 223 514 275 514 C330 514 366 496 391 463 C433 495 480 514 536 514 C644 514 703 445 703 344 L703 31 C703 10 690 -7 664 -7 C638 -7 625 10 625 31 L625 31 Z " />
<glyph glyph-name="n" unicode="n" horiz-adv-x="509" d="M155 371 L155 31 C155 10 142 -7 116 -7 C90 -7 77 10 77 31 L77 371 C77 426 68 426 59 441 C57 445 52 451 52 461 C52 481 68 496 89 496 C107 496 120 484 131 467 C175 498 226 512 274 512 C380 512 433 436 433 323 L433 31 C433 10 419 -7 394 -7 C369 -7 355 10 355 31 L355 323 C355 399 323 442 263 442 C224 442 186 426 152 400 C154 389 155 379 155 371 L155 371 Z " />
<glyph glyph-name="o" unicode="o" horiz-adv-x="464" d="M232 -8 C110 -8 45 70 45 170 L45 337 C45 437 110 515 232 515 C354 515 419 437 419 337 L419 170 C419 70 354 -8 232 -8 L232 -8 Z M232 64 C304 64 341 104 341 170 L341 338 C341 403 304 443 232 443 C160 443 123 403 123 338 L123 170 C123 104 160 64 232 64 L232 64 Z " />
<glyph glyph-name="p" unicode="p" horiz-adv-x="478" d="M266 -7 C232 -7 191 0 155 12 L155 -177 C155 -198 141 -215 116 -215 C91 -215 77 -198 77 -177 L77 369 C77 402 73 421 61 439 C57 445 54 450 54 459 C54 480 72 494 89 494 C105 494 118 484 128 470 C173 494 222 514 274 514 C379 514 433 437 433 325 L433 195 C433 76 393 -7 266 -7 L266 -7 Z M155 369 L155 82 C187 67 231 61 256 61 C329 61 355 102 355 195 L355 325 C355 403 324 444 258 444 C224 444 184 431 150 410 C153 395 155 381 155 369 L155 369 Z " />
<glyph glyph-name="q" unicode="q" horiz-adv-x="485" d="M333 107 L333 353 C333 409 293 442 228 442 C156 442 123 401 123 333 L123 175 C123 104 150 61 221 61 C262 61 303 75 333 107 L333 107 Z M411 353 L411 -177 C411 -198 398 -215 372 -215 C346 -215 333 -198 333 -177 L333 30 C297 7 256 -7 205 -7 C84 -7 45 71 45 175 L45 333 C45 435 106 514 228 514 C344 514 411 443 411 353 L411 353 Z " />
<glyph glyph-name="r" unicode="r" horiz-adv-x="337" d="M155 369 L155 31 C155 9 138 -8 116 -8 C94 -8 77 9 77 31 L77 369 C77 402 73 421 61 439 C57 445 54 450 54 459 C54 480 71 494 90 494 C106 494 120 483 130 467 C173 494 229 510 267 510 C307 510 319 493 319 472 C319 447 301 431 280 432 C239 433 203 433 153 396 C154 386 155 377 155 369 L155 369 Z " />
<glyph glyph-name="s" unicode="s" horiz-adv-x="406" d="M53 370 C53 456 109 514 215 514 C267 514 348 500 348 458 C348 439 333 422 312 422 C305 422 300 424 294 427 C273 437 254 445 218 445 C157 445 129 421 129 375 C129 344 142 328 176 311 C245 277 362 268 362 138 C362 48 305 -8 194 -8 C143 -8 47 4 47 50 C47 67 60 86 84 86 C90 86 91 85 94 84 C122 73 154 61 194 61 C249 61 286 83 286 135 C286 171 269 186 249 197 C186 231 53 238 53 370 L53 370 Z " />
<glyph glyph-name="t" unicode="t" horiz-adv-x="321" d="M74 203 L74 621 C74 642 88 659 113 659 C138 659 152 642 152 621 L152 483 L256 483 C276 483 292 467 292 446 C292 425 276 409 256 409 L152 409 L152 210 C152 107 162 69 234 69 C240 69 247 70 253 70 C276 70 305 66 305 34 C305 0 276 -4 248 -4 C108 -4 74 65 74 203 L74 203 Z " />
<glyph glyph-name="u" unicode="u" horiz-adv-x="509" d="M352 123 L352 473 C352 494 365 511 391 511 C417 511 430 494 430 473 L430 123 C430 68 440 68 448 53 C450 49 455 42 455 33 C455 14 439 -2 418 -2 C399 -2 386 10 375 28 C331 3 280 -8 233 -8 C127 -8 74 68 74 181 L74 473 C74 494 88 511 113 511 C138 511 152 494 152 473 L152 181 C152 105 184 62 244 62 C283 62 321 74 354 95 C353 105 352 115 352 123 L352 123 Z " />
<glyph glyph-name="v" unicode="v" horiz-adv-x="430" d="M404 462 L268 39 C257 6 243 -8 217 -8 C190 -8 177 6 166 38 L27 465 C19 489 42 511 65 511 C80 511 94 502 100 485 L217 108 L332 485 C337 500 352 511 367 511 C391 511 411 488 404 462 L404 462 Z " />
<glyph glyph-name="w" unicode="w" horiz-adv-x="655" d="M629 465 L514 37 C505 7 493 -8 464 -8 C443 -8 424 4 418 26 L328 377 L239 26 C232 2 217 -8 192 -8 C165 -8 150 9 142 37 L26 468 C25 470 25 472 25 474 C25 493 42 511 64 511 C80 511 95 501 100 483 L194 115 C225 236 254 354 284 476 C289 496 305 511 329 511 C352 511 367 496 372 476 C401 354 432 236 463 115 L556 483 C560 499 575 511 592 511 C612 511 630 494 630 472 C630 470 629 467 629 465 L629 465 Z " />
<glyph glyph-name="x" unicode="x" horiz-adv-x="431" d="M261 258 L401 50 C405 44 406 38 406 33 C406 11 390 -8 366 -8 C348 -8 340 0 328 19 L215 193 L97 12 C88 -2 78 -8 65 -8 C43 -8 25 8 25 31 C25 37 26 42 30 48 L170 256 L39 454 C35 459 33 466 33 471 C33 492 50 511 72 511 C94 511 106 492 116 477 L217 322 L322 485 C332 501 341 511 359 511 C377 511 397 495 397 474 C397 468 396 461 392 455 L261 258 L261 258 Z " />
<glyph glyph-name="y" unicode="y" horiz-adv-x="412" d="M397 460 L275 63 C227 -93 189 -200 59 -203 C36 -203 19 -187 19 -165 C19 -147 33 -129 56 -128 C119 -125 147 -91 177 2 L18 461 C16 464 16 471 16 475 C16 496 33 511 55 511 C70 511 84 502 90 485 L215 106 L324 485 C330 502 345 511 360 511 C380 511 399 495 399 472 C399 468 398 464 397 460 L397 460 Z " />
<glyph glyph-name="z" unicode="z" horiz-adv-x="384" d="M367 465 C367 456 364 446 358 437 L111 72 L332 72 C353 72 369 56 369 36 C369 16 353 0 332 0 L55 0 C34 0 15 18 15 42 C15 50 17 59 22 67 L270 433 L61 433 C41 433 25 449 25 469 C25 490 41 505 61 505 L326 505 C348 505 367 490 367 465 L367 465 Z " />
<glyph glyph-name="braceleft" unicode="&#x7b;" horiz-adv-x="417" d="M70 205 C47 205 31 217 31 241 C31 265 47 277 70 277 C121 277 145 305 149 367 C153 428 156 497 160 552 C165 628 229 675 317 675 C345 675 376 670 376 632 C376 597 350 600 334 602 C326 603 314 604 307 604 C272 604 238 581 236 540 L228 373 C225 311 201 264 156 241 C201 218 225 171 228 109 L236 -58 C238 -99 272 -122 306 -122 C313 -122 326 -121 334 -120 C350 -118 376 -115 376 -150 C376 -188 345 -193 317 -193 C229 -193 165 -146 160 -70 L149 115 C145 177 121 205 70 205 L70 205 Z " />
<glyph glyph-name="bar" unicode="&#x7c;" horiz-adv-x="227" d="M77 -204 L77 723 C77 742 93 759 113 759 C133 759 149 742 149 723 L149 -204 C149 -223 133 -240 113 -240 C93 -240 77 -223 77 -204 L77 -204 Z " />
<glyph glyph-name="braceright" unicode="&#x7d;" horiz-adv-x="417" d="M347 205 C296 205 272 177 268 115 L257 -70 C252 -146 188 -193 100 -193 C72 -193 41 -188 41 -150 C41 -115 67 -118 83 -120 C91 -121 104 -122 111 -122 C145 -122 179 -99 181 -58 L189 109 C192 171 215 218 260 241 C215 264 192 311 189 373 L181 540 C179 581 145 604 110 604 C103 604 91 603 83 602 C67 600 41 597 41 632 C41 670 72 675 100 675 C188 675 252 628 257 552 C261 497 264 428 268 367 C272 305 296 277 347 277 C370 277 386 265 386 241 C386 217 370 205 347 205 L347 205 Z " />
<glyph glyph-name="asciitilde" unicode="&#x7e;" horiz-adv-x="454" d="M393 352 C393 310 337 282 294 279 C243 279 210 314 174 318 C130 318 124 285 97 285 C79 285 64 298 61 318 C61 362 108 396 160 396 C210 396 241 361 280 357 C325 357 328 387 357 391 C376 391 393 374 393 352 L393 352 Z " />
<glyph glyph-name="exclamdown" unicode="&#xa1;" horiz-adv-x="227" d="M83 298 C83 315 96 330 113 330 C129 330 143 315 143 298 L153 -175 C153 -196 135 -215 113 -215 C91 -215 73 -196 73 -175 L83 298 L83 298 Z M168 455 C168 426 144 402 115 402 C85 402 61 426 61 455 C61 485 85 510 115 510 C144 510 168 485 168 455 L168 455 Z " />
<glyph glyph-name="cent" unicode="&#xa2;" horiz-adv-x="500" d="M224 -28 L224 23 C118 34 72 110 72 206 L72 307 C72 402 118 478 224 489 L224 533 C224 547 235 559 250 559 C265 559 276 547 276 533 L276 490 C324 486 390 469 390 430 C390 412 375 396 356 396 C351 396 346 397 340 399 C320 409 301 418 276 421 L276 91 C301 94 320 104 340 114 C346 116 351 117 356 117 C375 117 390 101 390 83 C390 43 324 27 276 23 L276 -28 C276 -42 264 -54 250 -54 C236 -54 224 -42 224 -28 L224 -28 Z M150 206 C150 145 171 106 224 94 L224 418 C171 407 150 368 150 307 L150 206 L150 206 Z " />
<glyph glyph-name="yen" unicode="&#xa5;" horiz-adv-x="476" d="M79 369 L153 369 L19 655 C17 660 15 668 15 674 C15 696 35 715 56 715 C68 715 81 710 87 699 L238 370 L389 699 C395 710 408 715 420 715 C441 715 461 696 461 674 C461 668 459 660 457 655 L322 369 L397 369 C417 369 436 353 436 332 C436 311 419 295 397 295 L288 295 L279 275 L279 239 L397 239 C417 239 436 223 436 202 C436 181 419 165 397 165 L279 165 L279 32 C279 10 261 -10 238 -10 C215 -10 197 9 197 32 L197 165 L79 165 C57 165 40 181 40 202 C40 223 59 239 79 239 L197 239 L197 277 L188 295 L79 295 C57 295 40 311 40 332 C40 353 59 369 79 369 L79 369 Z " />
<glyph glyph-name="dieresis" unicode="&#xa8;" horiz-adv-x="403" d="M335 639 C335 612 314 590 288 590 C262 590 240 613 240 639 C240 664 262 686 288 686 C314 686 335 665 335 639 L335 639 Z M166 639 C166 612 145 590 118 590 C92 590 72 613 72 639 C72 664 92 686 118 686 C145 686 166 665 166 639 L166 639 Z " />
<glyph glyph-name="copyright" unicode="&#xa9;" horiz-adv-x="740" d="M676 313 C676 124 568 -9 370 -9 C172 -9 64 124 64 313 C64 502 172 635 370 635 C568 635 676 502 676 313 L676 313 Z M616 313 C616 467 529 575 370 575 C211 575 124 467 124 313 C124 159 211 51 370 51 C529 51 616 159 616 313 L616 313 Z M236 283 L236 344 C236 426 279 491 379 491 C417 491 490 480 490 442 C490 428 478 415 463 415 C459 415 455 416 450 417 C431 428 414 436 386 436 C323 436 298 402 298 344 L298 283 C298 224 323 191 386 191 C414 191 431 200 450 209 C455 211 459 212 463 212 C478 212 490 199 490 184 C490 147 417 136 379 136 C279 136 236 200 236 283 L236 283 Z " />
<glyph glyph-name="guillemotleft" unicode="&#xab;" horiz-adv-x="431" d="M132 258 L272 50 C276 44 277 38 277 33 C277 11 261 -8 237 -8 C219 -8 211 0 199 19 L41 256 L193 485 C203 501 212 511 230 511 C248 511 268 495 268 474 C268 468 267 461 263 455 L132 258 L132 258 Z M292 256 L385 114 C389 108 390 101 390 95 C390 74 370 58 352 58 C334 58 325 68 315 84 L201 256 L315 428 C325 444 334 454 352 454 C370 454 390 438 390 417 C390 411 389 404 385 398 L292 256 L292 256 Z " />
<glyph glyph-name="registered" unicode="&#xae;" horiz-adv-x="700" d="M636 423 C636 252 536 131 350 131 C164 131 64 252 64 423 C64 600 164 725 350 725 C536 725 636 600 636 423 L636 423 Z M576 423 C576 565 497 665 350 665 C203 665 124 565 124 423 C124 287 203 191 350 191 C497 191 576 287 576 423 L576 423 Z M461 486 C461 443 441 414 409 399 L473 302 C475 296 476 296 476 290 C476 279 456 271 444 271 C433 271 423 275 418 281 L349 389 L302 389 L302 296 C302 283 287 271 271 271 C256 271 242 282 242 296 L242 551 C242 569 258 585 275 585 L352 585 C433 585 461 535 461 486 L461 486 Z M401 486 C401 505 392 526 350 526 L302 526 L302 447 L353 447 C385 447 401 461 401 486 L401 486 Z " />
<glyph glyph-name="macron" unicode="&#xaf;" horiz-adv-x="403" d="M362 637 C362 617 346 601 326 601 L77 601 C56 601 40 617 40 637 C40 657 56 674 77 674 L326 674 C346 674 362 657 362 637 L362 637 Z " />
<glyph glyph-name="degree" unicode="&#xb0;" horiz-adv-x="392" d="M196 436 C105 436 55 498 55 576 C55 654 104 716 196 716 C288 716 337 654 337 576 C337 498 288 436 196 436 L196 436 Z M196 498 C246 498 269 526 269 578 C269 626 246 654 196 654 C146 654 123 626 123 578 C123 525 146 498 196 498 L196 498 Z " />
<glyph glyph-name="plusminus" unicode="&#xb1;" horiz-adv-x="500" d="M211 175 L211 345 L51 345 C29 345 12 362 12 384 C12 406 31 423 51 423 L211 423 L211 593 C211 613 228 632 250 632 C272 632 289 615 289 593 L289 423 L449 423 C469 423 488 406 488 384 C488 362 471 345 449 345 L289 345 L289 175 C289 153 272 136 250 136 C228 136 211 155 211 175 L211 175 Z M51 78 L449 78 C469 78 488 61 488 39 C488 17 471 0 449 0 L51 0 C29 0 12 17 12 39 C12 61 31 78 51 78 L51 78 Z " />
<glyph glyph-name="twosuperior" unicode="&#xb2;" horiz-adv-x="250" d="M227 411 C227 398 216 390 205 390 L43 390 C27 390 16 399 16 413 C16 418 17 426 21 434 C40 479 76 514 109 546 C119 557 142 580 152 592 C165 604 178 625 178 649 C178 684 159 708 122 708 C107 708 92 704 78 699 L65 693 C60 690 52 686 46 686 C35 686 21 695 21 707 C21 718 24 721 27 724 C61 746 92 754 122 754 C188 754 225 710 225 655 C225 612 210 583 191 560 C182 549 170 538 159 527 L149 517 C121 491 94 464 78 436 L205 436 C216 436 227 425 227 411 L227 411 Z " />
<glyph glyph-name="threesuperior" unicode="&#xb3;" horiz-adv-x="250" d="M210 699 L132 599 C184 595 224 558 224 499 C224 448 194 385 120 385 C100 385 20 390 20 424 C20 438 30 449 44 449 C46 449 51 447 59 443 C71 436 86 429 111 429 C161 429 176 466 176 498 C176 541 149 558 114 558 C108 558 101 557 97 555 L94 553 C93 552 90 552 86 552 C69 552 58 573 69 588 L151 696 L52 696 C37 696 26 705 26 718 C26 733 37 745 52 745 L189 745 C204 745 213 734 213 716 C213 709 213 702 210 699 L210 699 Z " />
<glyph glyph-name="acute" unicode="&#xb4;" horiz-adv-x="276" d="M82 624 L160 705 C174 718 179 728 197 728 C211 728 228 714 228 695 C228 690 227 683 223 678 L142 592 C130 581 123 574 110 574 C92 574 77 588 77 609 C77 614 78 619 82 624 L82 624 Z " />
<glyph glyph-name="periodcentered" unicode="&#xb7;" horiz-adv-x="255" d="M178 274 C178 244 154 220 124 220 C95 220 71 244 71 274 C71 303 95 327 124 327 C154 327 178 303 178 274 L178 274 Z " />
<glyph glyph-name="cedilla" unicode="&#xb8;" horiz-adv-x="300" d="M245 -128 C245 -177 200 -224 106 -211 C75 -207 46 -187 58 -164 C67 -147 82 -156 111 -162 C158 -171 180 -143 180 -121 C180 -97 159 -87 120 -85 C89 -83 79 -77 83 -53 L96 20 L145 20 L135 -40 C217 -41 245 -76 245 -128 L245 -128 Z " />
<glyph glyph-name="onesuperior" unicode="&#xb9;" horiz-adv-x="250" d="M127 407 L127 685 L75 649 C67 644 60 640 52 640 C39 640 28 650 28 661 C28 670 33 677 41 683 L138 744 C144 748 148 749 152 749 C166 749 177 738 177 722 L177 407 C177 396 166 385 153 385 C138 385 127 396 127 407 L127 407 Z " />
<glyph glyph-name="ordmasculine" unicode="&#xba;" horiz-adv-x="384" d="M192 346 C98 346 50 408 50 490 L50 570 C50 652 98 715 192 715 C286 715 334 652 334 570 L334 490 C334 408 286 346 192 346 L192 346 Z M192 652 C137 652 117 620 117 566 L117 488 C117 438 140 408 192 408 C244 408 267 438 267 488 L267 566 C267 620 247 652 192 652 L192 652 Z " />
<glyph glyph-name="guillemotright" unicode="&#xbb;" horiz-adv-x="431" d="M159 50 L299 258 L168 455 C164 461 163 468 163 474 C163 495 183 511 201 511 C219 511 228 501 238 485 L390 256 L232 19 C220 0 212 -8 194 -8 C170 -8 154 11 154 33 C154 38 155 44 159 50 L159 50 Z M46 114 L139 256 L46 398 C42 404 41 411 41 417 C41 438 61 454 79 454 C97 454 106 444 116 428 L230 256 L116 84 C106 68 97 58 79 58 C61 58 41 74 41 95 C41 101 42 108 46 114 L46 114 Z " />
<glyph glyph-name="questiondown" unicode="&#xbf;" horiz-adv-x="462" d="M196 251 C201 262 202 277 202 290 C202 311 220 330 242 330 C264 330 282 311 282 290 C282 277 281 262 276 251 C254 190 207 151 170 104 C141 71 115 29 115 -23 C115 -96 157 -152 239 -152 C277 -152 307 -145 334 -133 C359 -122 376 -105 394 -105 C413 -105 432 -120 432 -142 C432 -158 423 -169 406 -180 C354 -213 301 -225 238 -225 C111 -225 37 -140 37 -34 C37 49 67 104 109 151 C139 186 178 213 196 251 L196 251 Z M188 455 C188 485 212 510 241 510 C271 510 295 485 295 455 C295 426 271 402 241 402 C212 402 188 426 188 455 L188 455 Z " />
<glyph glyph-name="Agrave" unicode="&#xc0;" horiz-adv-x="549" d="M105 20 C99 2 81 -10 67 -10 C44 -10 25 6 25 30 C25 34 26 42 27 45 L222 662 C231 692 245 715 274 715 C304 715 317 693 327 662 L522 45 C523 42 524 34 524 30 C524 6 506 -10 482 -10 C467 -10 448 2 443 20 L400 159 L147 159 L105 20 L105 20 Z M171 237 L377 237 L274 576 L171 237 L171 237 Z M227 905 L305 824 C309 819 310 814 310 809 C310 788 294 774 277 774 C264 774 256 781 245 792 L164 878 C160 883 159 890 159 895 C159 914 176 928 190 928 C208 928 213 918 227 905 L227 905 Z " />
<glyph glyph-name="Aacute" unicode="&#xc1;" horiz-adv-x="549" d="M105 20 C99 2 81 -10 67 -10 C44 -10 25 6 25 30 C25 34 26 42 27 45 L222 662 C231 692 245 715 274 715 C304 715 317 693 327 662 L522 45 C523 42 524 34 524 30 C524 6 506 -10 482 -10 C467 -10 448 2 443 20 L400 159 L147 159 L105 20 L105 20 Z M171 237 L377 237 L274 576 L171 237 L171 237 Z M247 824 L325 905 C339 918 344 928 362 928 C376 928 393 914 393 895 C393 890 392 883 388 878 L307 792 C295 781 288 774 275 774 C257 774 242 788 242 809 C242 814 243 819 247 824 L247 824 Z " />
<glyph glyph-name="Acircumflex" unicode="&#xc2;" horiz-adv-x="549" d="M105 20 C99 2 81 -10 67 -10 C44 -10 25 6 25 30 C25 34 26 42 27 45 L222 662 C231 692 245 715 274 715 C304 715 317 693 327 662 L522 45 C523 42 524 34 524 30 C524 6 506 -10 482 -10 C467 -10 448 2 443 20 L400 159 L147 159 L105 20 L105 20 Z M171 237 L377 237 L274 576 L171 237 L171 237 Z M274 836 L199 775 C196 771 186 769 180 769 C167 769 155 782 155 795 C155 806 163 816 173 825 L252 892 C258 896 265 900 274 900 C283 900 290 896 296 892 L375 825 C385 816 393 806 393 795 C393 782 381 769 367 769 C362 769 352 771 349 775 L274 836 L274 836 Z " />
<glyph glyph-name="Atilde" unicode="&#xc3;" horiz-adv-x="549" d="M105 20 C99 2 81 -10 67 -10 C44 -10 25 6 25 30 C25 34 26 42 27 45 L222 662 C231 692 245 715 274 715 C304 715 317 693 327 662 L522 45 C523 42 524 34 524 30 C524 6 506 -10 482 -10 C467 -10 448 2 443 20 L400 159 L147 159 L105 20 L105 20 Z M171 237 L377 237 L274 576 L171 237 L171 237 Z M412 850 C412 815 366 791 330 789 C287 789 260 818 230 821 C193 821 188 794 166 794 C151 794 138 805 136 821 C136 858 175 886 218 886 C260 886 286 857 318 854 C356 854 358 879 382 882 C398 882 412 868 412 850 L412 850 Z " />
<glyph glyph-name="Adieresis" unicode="&#xc4;" horiz-adv-x="549" d="M105 20 C99 2 81 -10 67 -10 C44 -10 25 6 25 30 C25 34 26 42 27 45 L222 662 C231 692 245 715 274 715 C304 715 317 693 327 662 L522 45 C523 42 524 34 524 30 C524 6 506 -10 482 -10 C467 -10 448 2 443 20 L400 159 L147 159 L105 20 L105 20 Z M171 237 L377 237 L274 576 L171 237 L171 237 Z M406 839 C406 812 385 790 359 790 C333 790 311 813 311 839 C311 864 333 886 359 886 C385 886 406 865 406 839 L406 839 Z M237 839 C237 812 216 790 189 790 C163 790 143 813 143 839 C143 864 163 886 189 886 C216 886 237 865 237 839 L237 839 Z " />
<glyph glyph-name="Aring" unicode="&#xc5;" horiz-adv-x="549" d="M385 725 C385 686 365 653 336 633 L522 45 C523 42 524 34 524 30 C524 6 506 -10 482 -10 C467 -10 448 2 443 20 L400 159 L147 159 L105 20 C99 2 81 -10 67 -10 C44 -10 25 6 25 30 C25 34 26 42 27 45 L213 633 C183 653 164 686 164 725 C164 785 213 835 275 835 C336 835 385 786 385 725 L385 725 Z M274 576 L171 237 L377 237 L274 576 L274 576 Z M335 725 C335 758 308 786 275 786 C242 786 215 758 215 725 C215 692 242 665 275 665 C308 665 335 691 335 725 L335 725 Z " />
<glyph glyph-name="AE" unicode="&#xc6;" horiz-adv-x="722" d="M414 0 C381 0 351 11 351 47 L351 159 L147 159 L105 20 C100 2 81 -10 67 -10 C43 -10 25 6 25 30 C25 34 26 42 27 45 L220 652 C229 682 244 705 272 705 L639 705 C661 705 679 687 679 665 C679 643 661 627 639 627 L431 627 L431 393 L620 393 C640 393 659 376 659 354 C659 332 642 315 620 315 L431 315 L431 78 L649 78 C670 78 689 61 689 41 C689 18 671 0 649 0 L414 0 L414 0 Z M351 627 L301 627 C292 627 288 624 288 617 L171 237 L351 237 L351 627 L351 627 Z " />
<glyph glyph-name="Ccedilla" unicode="&#xc7;" horiz-adv-x="482" d="M366 -128 C366 -177 321 -224 227 -211 C196 -207 167 -187 179 -164 C188 -147 203 -156 232 -162 C279 -171 301 -143 301 -121 C301 -97 280 -87 241 -85 C210 -83 200 -77 204 -53 L213 -4 C98 18 45 112 45 246 L45 460 C45 614 116 715 270 715 C361 715 447 676 447 629 C447 610 432 594 411 594 C397 594 391 601 375 611 C345 632 314 642 275 642 C162 642 125 572 125 460 L125 246 C125 134 162 64 275 64 C314 64 345 74 375 95 C392 105 397 112 411 112 C432 112 447 96 447 77 C447 30 361 -9 270 -9 L261 -9 L256 -40 C338 -41 366 -76 366 -128 L366 -128 Z " />
<glyph glyph-name="Egrave" unicode="&#xc8;" horiz-adv-x="474" d="M441 41 C441 18 423 0 401 0 L136 0 C103 0 73 11 73 47 L73 658 C73 681 93 705 120 705 L391 705 C413 705 431 687 431 665 C431 643 413 627 391 627 L153 627 L153 393 L372 393 C392 393 411 376 411 354 C411 332 394 315 372 315 L153 315 L153 78 L401 78 C422 78 441 61 441 41 L441 41 Z M229 905 L307 824 C311 819 312 814 312 809 C312 788 296 774 279 774 C266 774 258 781 247 792 L166 878 C162 883 161 890 161 895 C161 914 178 928 192 928 C210 928 215 918 229 905 L229 905 Z " />
<glyph glyph-name="Eacute" unicode="&#xc9;" horiz-adv-x="474" d="M441 41 C441 18 423 0 401 0 L136 0 C103 0 73 11 73 47 L73 658 C73 681 93 705 120 705 L391 705 C413 705 431 687 431 665 C431 643 413 627 391 627 L153 627 L153 393 L372 393 C392 393 411 376 411 354 C411 332 394 315 372 315 L153 315 L153 78 L401 78 C422 78 441 61 441 41 L441 41 Z M207 824 L285 905 C299 918 304 928 322 928 C336 928 353 914 353 895 C353 890 352 883 348 878 L267 792 C255 781 248 774 235 774 C217 774 202 788 202 809 C202 814 203 819 207 824 L207 824 Z " />
<glyph glyph-name="Ecircumflex" unicode="&#xca;" horiz-adv-x="474" d="M441 41 C441 18 423 0 401 0 L136 0 C103 0 73 11 73 47 L73 658 C73 681 93 705 120 705 L391 705 C413 705 431 687 431 665 C431 643 413 627 391 627 L153 627 L153 393 L372 393 C392 393 411 376 411 354 C411 332 394 315 372 315 L153 315 L153 78 L401 78 C422 78 441 61 441 41 L441 41 Z M261 836 L186 775 C183 771 173 769 167 769 C154 769 142 782 142 795 C142 806 150 816 160 825 L239 892 C245 896 252 900 261 900 C270 900 277 896 283 892 L362 825 C372 816 380 806 380 795 C380 782 368 769 354 769 C349 769 339 771 336 775 L261 836 L261 836 Z " />
<glyph glyph-name="Edieresis" unicode="&#xcb;" horiz-adv-x="474" d="M441 41 C441 18 423 0 401 0 L136 0 C103 0 73 11 73 47 L73 658 C73 681 93 705 120 705 L391 705 C413 705 431 687 431 665 C431 643 413 627 391 627 L153 627 L153 393 L372 393 C392 393 411 376 411 354 C411 332 394 315 372 315 L153 315 L153 78 L401 78 C422 78 441 61 441 41 L441 41 Z M392 839 C392 812 371 790 345 790 C319 790 297 813 297 839 C297 864 319 886 345 886 C371 886 392 865 392 839 L392 839 Z M223 839 C223 812 202 790 175 790 C149 790 129 813 129 839 C129 864 149 886 175 886 C202 886 223 865 223 839 L223 839 Z " />
<glyph glyph-name="Igrave" unicode="&#xcc;" horiz-adv-x="227" d="M73 30 L73 675 C73 696 91 715 113 715 C135 715 153 696 153 675 L153 30 C153 9 135 -10 113 -10 C91 -10 73 9 73 30 L73 30 Z M79 905 L157 824 C161 819 162 814 162 809 C162 788 146 774 129 774 C116 774 108 781 97 792 L16 878 C12 883 11 890 11 895 C11 914 28 928 42 928 C60 928 65 918 79 905 L79 905 Z " />
<glyph glyph-name="Iacute" unicode="&#xcd;" horiz-adv-x="227" d="M73 30 L73 675 C73 696 91 715 113 715 C135 715 153 696 153 675 L153 30 C153 9 135 -10 113 -10 C91 -10 73 9 73 30 L73 30 Z M70 824 L148 905 C162 918 167 928 185 928 C199 928 216 914 216 895 C216 890 215 883 211 878 L130 792 C118 781 111 774 98 774 C80 774 65 788 65 809 C65 814 66 819 70 824 L70 824 Z " />
<glyph glyph-name="Icircumflex" unicode="&#xce;" horiz-adv-x="227" d="M73 30 L73 675 C73 696 91 715 113 715 C135 715 153 696 153 675 L153 30 C153 9 135 -10 113 -10 C91 -10 73 9 73 30 L73 30 Z M114 836 L39 775 C36 771 26 769 20 769 C7 769 -5 782 -5 795 C-5 806 3 816 13 825 L92 892 C98 896 105 900 114 900 C123 900 130 896 136 892 L215 825 C225 816 233 806 233 795 C233 782 221 769 207 769 C202 769 192 771 189 775 L114 836 L114 836 Z " />
<glyph glyph-name="Idieresis" unicode="&#xcf;" horiz-adv-x="227" d="M73 30 L73 675 C73 696 91 715 113 715 C135 715 153 696 153 675 L153 30 C153 9 135 -10 113 -10 C91 -10 73 9 73 30 L73 30 Z M245 839 C245 812 224 790 198 790 C172 790 150 813 150 839 C150 864 172 886 198 886 C224 886 245 865 245 839 L245 839 Z M76 839 C76 812 55 790 28 790 C2 790 -18 813 -18 839 C-18 864 2 886 28 886 C55 886 76 865 76 839 L76 839 Z " />
<glyph glyph-name="Eth" unicode="&#xd0;" horiz-adv-x="574" d="M528 264 C528 127 459 0 254 0 L141 0 C115 0 93 22 93 48 L93 317 L54 317 C33 317 17 333 17 353 C17 373 33 390 54 390 L93 390 L93 658 C93 684 115 706 141 706 L254 706 C458 706 528 585 528 451 L528 264 L528 264 Z M339 353 C339 333 323 317 303 317 L173 317 L173 78 L271 78 C403 78 448 161 448 264 L448 451 C448 550 401 628 271 628 L173 628 L173 390 L303 390 C323 390 339 373 339 353 L339 353 Z " />
<glyph glyph-name="Ntilde" unicode="&#xd1;" horiz-adv-x="600" d="M482 -10 C466 -10 449 -1 441 13 L153 546 L153 31 C153 9 134 -10 112 -10 C90 -10 73 9 73 31 L73 671 C73 696 91 715 116 715 C133 715 150 706 158 691 L446 159 L446 674 C446 696 465 715 487 715 C509 715 526 696 526 674 L526 34 C526 10 508 -10 482 -10 L482 -10 Z M438 850 C438 815 392 791 356 789 C313 789 286 818 256 821 C219 821 214 794 192 794 C177 794 164 805 162 821 C162 858 201 886 244 886 C286 886 312 857 344 854 C382 854 384 879 408 882 C424 882 438 868 438 850 L438 850 Z " />
<glyph glyph-name="Ograve" unicode="&#xd2;" horiz-adv-x="551" d="M275 -10 C122 -10 45 104 45 246 L45 460 C45 599 110 715 275 715 C440 715 505 599 505 460 L505 246 C505 104 428 -10 275 -10 L275 -10 Z M275 637 C165 637 125 566 125 460 L125 246 C125 141 172 68 275 68 C378 68 425 141 425 246 L425 460 C425 566 385 637 275 637 L275 637 Z M247 905 L325 824 C329 819 330 814 330 809 C330 788 314 774 297 774 C284 774 276 781 265 792 L184 878 C180 883 179 890 179 895 C179 914 196 928 210 928 C228 928 233 918 247 905 L247 905 Z " />
<glyph glyph-name="Oacute" unicode="&#xd3;" horiz-adv-x="551" d="M275 -10 C122 -10 45 104 45 246 L45 460 C45 599 110 715 275 715 C440 715 505 599 505 460 L505 246 C505 104 428 -10 275 -10 L275 -10 Z M275 637 C165 637 125 566 125 460 L125 246 C125 141 172 68 275 68 C378 68 425 141 425 246 L425 460 C425 566 385 637 275 637 L275 637 Z M234 824 L312 905 C326 918 331 928 349 928 C363 928 380 914 380 895 C380 890 379 883 375 878 L294 792 C282 781 275 774 262 774 C244 774 229 788 229 809 C229 814 230 819 234 824 L234 824 Z " />
<glyph glyph-name="Ocircumflex" unicode="&#xd4;" horiz-adv-x="551" d="M275 -10 C122 -10 45 104 45 246 L45 460 C45 599 110 715 275 715 C440 715 505 599 505 460 L505 246 C505 104 428 -10 275 -10 L275 -10 Z M275 637 C165 637 125 566 125 460 L125 246 C125 141 172 68 275 68 C378 68 425 141 425 246 L425 460 C425 566 385 637 275 637 L275 637 Z M275 836 L200 775 C197 771 187 769 181 769 C168 769 156 782 156 795 C156 806 164 816 174 825 L253 892 C259 896 266 900 275 900 C284 900 291 896 297 892 L376 825 C386 816 394 806 394 795 C394 782 382 769 368 769 C363 769 353 771 350 775 L275 836 L275 836 Z " />
<glyph glyph-name="Otilde" unicode="&#xd5;" horiz-adv-x="551" d="M275 -10 C122 -10 45 104 45 246 L45 460 C45 599 110 715 275 715 C440 715 505 599 505 460 L505 246 C505 104 428 -10 275 -10 L275 -10 Z M275 637 C165 637 125 566 125 460 L125 246 C125 141 172 68 275 68 C378 68 425 141 425 246 L425 460 C425 566 385 637 275 637 L275 637 Z M413 850 C413 815 367 791 331 789 C288 789 261 818 231 821 C194 821 189 794 167 794 C152 794 139 805 137 821 C137 858 176 886 219 886 C261 886 287 857 319 854 C357 854 359 879 383 882 C399 882 413 868 413 850 L413 850 Z " />
<glyph glyph-name="Odieresis" unicode="&#xd6;" horiz-adv-x="551" d="M275 -10 C122 -10 45 104 45 246 L45 460 C45 599 110 715 275 715 C440 715 505 599 505 460 L505 246 C505 104 428 -10 275 -10 L275 -10 Z M275 637 C165 637 125 566 125 460 L125 246 C125 141 172 68 275 68 C378 68 425 141 425 246 L425 460 C425 566 385 637 275 637 L275 637 Z M407 839 C407 812 386 790 360 790 C334 790 312 813 312 839 C312 864 334 886 360 886 C386 886 407 865 407 839 L407 839 Z M238 839 C238 812 217 790 190 790 C164 790 144 813 144 839 C144 864 164 886 190 886 C217 886 238 865 238 839 L238 839 Z " />
<glyph glyph-name="multiply" unicode="&#xd7;" horiz-adv-x="500" d="M425 474 L305 354 L425 234 C441 218 441 194 425 179 C410 163 384 164 370 179 L250 299 L130 179 C116 164 90 163 75 179 C59 194 59 218 75 234 L195 354 L75 474 C60 488 59 514 75 529 C90 545 114 545 130 529 L250 409 L370 529 C386 545 410 545 425 529 C441 514 440 488 425 474 L425 474 Z " />
<glyph glyph-name="Oslash" unicode="&#xd8;" horiz-adv-x="551" d="M25 39 L74 109 C55 149 45 195 45 246 L45 460 C45 599 110 715 275 715 C355 715 411 688 448 644 L484 695 C492 707 509 710 521 702 C532 694 536 678 527 666 L478 596 C496 557 505 510 505 460 L505 246 C505 104 428 -10 275 -10 C200 -10 143 17 104 62 L68 10 C60 -2 43 -5 31 3 C20 11 16 27 25 39 L25 39 Z M275 637 C165 637 125 566 125 460 L125 246 C125 226 126 206 130 189 L400 575 C377 614 337 637 275 637 L275 637 Z M425 460 C425 479 423 497 420 514 L152 130 C176 91 217 68 275 68 C378 68 425 141 425 246 L425 460 L425 460 Z " />
<glyph glyph-name="Ugrave" unicode="&#xd9;" horiz-adv-x="572" d="M507 230 C507 91 425 -10 286 -10 C144 -10 65 92 65 230 L65 673 C65 697 83 715 106 715 C127 715 145 696 145 673 L145 230 C145 134 190 68 286 68 C382 68 426 136 426 230 L426 673 C426 695 443 715 465 715 C489 715 507 695 507 673 L507 230 L507 230 Z M244 905 L322 824 C326 819 327 814 327 809 C327 788 311 774 294 774 C281 774 273 781 262 792 L181 878 C177 883 176 890 176 895 C176 914 193 928 207 928 C225 928 230 918 244 905 L244 905 Z " />
<glyph glyph-name="Uacute" unicode="&#xda;" horiz-adv-x="572" d="M507 230 C507 91 425 -10 286 -10 C144 -10 65 92 65 230 L65 673 C65 697 83 715 106 715 C127 715 145 696 145 673 L145 230 C145 134 190 68 286 68 C382 68 426 136 426 230 L426 673 C426 695 443 715 465 715 C489 715 507 695 507 673 L507 230 L507 230 Z M251 824 L329 905 C343 918 348 928 366 928 C380 928 397 914 397 895 C397 890 396 883 392 878 L311 792 C299 781 292 774 279 774 C261 774 246 788 246 809 C246 814 247 819 251 824 L251 824 Z " />
<glyph glyph-name="Ucircumflex" unicode="&#xdb;" horiz-adv-x="572" d="M507 230 C507 91 425 -10 286 -10 C144 -10 65 92 65 230 L65 673 C65 697 83 715 106 715 C127 715 145 696 145 673 L145 230 C145 134 190 68 286 68 C382 68 426 136 426 230 L426 673 C426 695 443 715 465 715 C489 715 507 695 507 673 L507 230 L507 230 Z M286 836 L211 775 C208 771 198 769 192 769 C179 769 167 782 167 795 C167 806 175 816 185 825 L264 892 C270 896 277 900 286 900 C295 900 302 896 308 892 L387 825 C397 816 405 806 405 795 C405 782 393 769 379 769 C374 769 364 771 361 775 L286 836 L286 836 Z " />
<glyph glyph-name="Udieresis" unicode="&#xdc;" horiz-adv-x="572" d="M507 230 C507 91 425 -10 286 -10 C144 -10 65 92 65 230 L65 673 C65 697 83 715 106 715 C127 715 145 696 145 673 L145 230 C145 134 190 68 286 68 C382 68 426 136 426 230 L426 673 C426 695 443 715 465 715 C489 715 507 695 507 673 L507 230 L507 230 Z M417 839 C417 812 396 790 370 790 C344 790 322 813 322 839 C322 864 344 886 370 886 C396 886 417 865 417 839 L417 839 Z M248 839 C248 812 227 790 200 790 C174 790 154 813 154 839 C154 864 174 886 200 886 C227 886 248 865 248 839 L248 839 Z " />
<glyph glyph-name="Yacute" unicode="&#xdd;" horiz-adv-x="476" d="M238 -10 C215 -10 197 9 197 32 L197 277 L19 655 C17 660 15 668 15 674 C15 696 35 715 56 715 C68 715 81 710 87 699 L238 370 L389 699 C395 710 408 715 420 715 C441 715 461 696 461 674 C461 668 459 660 457 655 L279 275 L279 32 C279 10 261 -10 238 -10 L238 -10 Z M168 824 L246 905 C260 918 265 928 283 928 C297 928 314 914 314 895 C314 890 313 883 309 878 L228 792 C216 781 209 774 196 774 C178 774 163 788 163 809 C163 814 164 819 168 824 L168 824 Z " />
<glyph glyph-name="Thorn" unicode="&#xde;" horiz-adv-x="530" d="M73 30 L73 675 C73 696 91 715 113 715 C135 715 153 696 153 675 L153 586 L268 586 C434 586 493 478 493 361 C493 219 405 140 268 140 L153 140 L153 30 C153 9 135 -10 113 -10 C91 -10 73 9 73 30 L73 30 Z M153 508 L153 218 L268 218 C363 218 413 264 413 362 C413 434 386 508 268 508 L153 508 L153 508 Z " />
<glyph glyph-name="germandbls" unicode="&#xdf;" horiz-adv-x="544" d="M513 163 C513 60 450 -4 335 -4 C312 -4 207 -3 207 42 C207 58 217 78 247 78 C270 78 304 67 334 67 C380 67 435 93 435 161 C435 237 366 278 316 295 C277 308 223 318 223 369 C223 402 241 419 260 429 C298 449 376 464 376 545 C376 611 329 647 263 647 C185 647 151 598 151 497 L151 -26 C151 -47 134 -65 112 -65 C90 -65 73 -47 73 -26 L73 494 C73 634 143 719 269 719 C374 719 452 660 452 553 C452 481 416 435 365 412 C340 401 296 391 301 374 C305 362 326 359 365 345 C449 314 513 259 513 163 L513 163 Z " />
<glyph glyph-name="agrave" unicode="&#xe0;" horiz-adv-x="482" d="M322 338 C322 411 287 445 215 445 C180 445 161 436 139 424 C136 423 124 416 113 416 C94 416 86 434 85 449 C81 495 156 514 225 514 C350 514 400 444 400 312 L400 92 C400 72 406 62 418 62 C421 62 422 63 426 63 C445 63 455 46 455 29 C455 4 432 -5 410 -5 C377 -5 350 14 335 45 C297 10 252 -8 198 -8 C95 -8 45 53 45 143 L45 147 C45 245 103 295 221 295 C257 295 291 290 322 281 L322 338 L322 338 Z M220 229 C138 229 122 191 122 146 L122 142 C122 95 143 62 210 62 C253 62 287 76 322 106 L322 214 C289 224 250 229 220 229 L220 229 Z M213 705 L291 624 C295 619 296 614 296 609 C296 588 280 574 263 574 C250 574 242 581 231 592 L150 678 C146 683 145 690 145 695 C145 714 162 728 176 728 C194 728 199 718 213 705 L213 705 Z " />
<glyph glyph-name="aacute" unicode="&#xe1;" horiz-adv-x="482" d="M322 338 C322 411 287 445 215 445 C180 445 161 436 139 424 C136 423 124 416 113 416 C94 416 86 434 85 449 C81 495 156 514 225 514 C350 514 400 444 400 312 L400 92 C400 72 406 62 418 62 C421 62 422 63 426 63 C445 63 455 46 455 29 C455 4 432 -5 410 -5 C377 -5 350 14 335 45 C297 10 252 -8 198 -8 C95 -8 45 53 45 143 L45 147 C45 245 103 295 221 295 C257 295 291 290 322 281 L322 338 L322 338 Z M220 229 C138 229 122 191 122 146 L122 142 C122 95 143 62 210 62 C253 62 287 76 322 106 L322 214 C289 224 250 229 220 229 L220 229 Z M200 624 L278 705 C292 718 297 728 315 728 C329 728 346 714 346 695 C346 690 345 683 341 678 L260 592 C248 581 241 574 228 574 C210 574 195 588 195 609 C195 614 196 619 200 624 L200 624 Z " />
<glyph glyph-name="acircumflex" unicode="&#xe2;" horiz-adv-x="482" d="M322 338 C322 411 287 445 215 445 C180 445 161 436 139 424 C136 423 124 416 113 416 C94 416 86 434 85 449 C81 495 156 514 225 514 C350 514 400 444 400 312 L400 92 C400 72 406 62 418 62 C421 62 422 63 426 63 C445 63 455 46 455 29 C455 4 432 -5 410 -5 C377 -5 350 14 335 45 C297 10 252 -8 198 -8 C95 -8 45 53 45 143 L45 147 C45 245 103 295 221 295 C257 295 291 290 322 281 L322 338 L322 338 Z M220 229 C138 229 122 191 122 146 L122 142 C122 95 143 62 210 62 C253 62 287 76 322 106 L322 214 C289 224 250 229 220 229 L220 229 Z M241 636 L166 575 C163 571 153 569 147 569 C134 569 122 582 122 595 C122 606 130 616 140 625 L219 692 C225 696 232 700 241 700 C250 700 257 696 263 692 L342 625 C352 616 360 606 360 595 C360 582 348 569 334 569 C329 569 319 571 316 575 L241 636 L241 636 Z " />
<glyph glyph-name="atilde" unicode="&#xe3;" horiz-adv-x="482" d="M322 338 C322 411 287 445 215 445 C180 445 161 436 139 424 C136 423 124 416 113 416 C94 416 86 434 85 449 C81 495 156 514 225 514 C350 514 400 444 400 312 L400 92 C400 72 406 62 418 62 C421 62 422 63 426 63 C445 63 455 46 455 29 C455 4 432 -5 410 -5 C377 -5 350 14 335 45 C297 10 252 -8 198 -8 C95 -8 45 53 45 143 L45 147 C45 245 103 295 221 295 C257 295 291 290 322 281 L322 338 L322 338 Z M220 229 C138 229 122 191 122 146 L122 142 C122 95 143 62 210 62 C253 62 287 76 322 106 L322 214 C289 224 250 229 220 229 L220 229 Z M379 650 C379 615 333 591 297 589 C254 589 227 618 197 621 C160 621 155 594 133 594 C118 594 105 605 103 621 C103 658 142 686 185 686 C227 686 253 657 285 654 C323 654 325 679 349 682 C365 682 379 668 379 650 L379 650 Z " />
<glyph glyph-name="adieresis" unicode="&#xe4;" horiz-adv-x="482" d="M322 338 C322 411 287 445 215 445 C180 445 161 436 139 424 C136 423 124 416 113 416 C94 416 86 434 85 449 C81 495 156 514 225 514 C350 514 400 444 400 312 L400 92 C400 72 406 62 418 62 C421 62 422 63 426 63 C445 63 455 46 455 29 C455 4 432 -5 410 -5 C377 -5 350 14 335 45 C297 10 252 -8 198 -8 C95 -8 45 53 45 143 L45 147 C45 245 103 295 221 295 C257 295 291 290 322 281 L322 338 L322 338 Z M220 229 C138 229 122 191 122 146 L122 142 C122 95 143 62 210 62 C253 62 287 76 322 106 L322 214 C289 224 250 229 220 229 L220 229 Z M372 639 C372 612 351 590 325 590 C299 590 277 613 277 639 C277 664 299 686 325 686 C351 686 372 665 372 639 L372 639 Z M203 639 C203 612 182 590 155 590 C129 590 109 613 109 639 C109 664 129 686 155 686 C182 686 203 665 203 639 L203 639 Z " />
<glyph glyph-name="aring" unicode="&#xe5;" horiz-adv-x="482" d="M322 338 C322 411 287 445 215 445 C180 445 161 436 139 424 C136 423 124 416 113 416 C94 416 86 434 85 449 C81 495 156 514 225 514 C350 514 400 444 400 312 L400 92 C400 72 406 62 418 62 C421 62 422 63 426 63 C445 63 455 46 455 29 C455 4 432 -5 410 -5 C377 -5 350 14 335 45 C297 10 252 -8 198 -8 C95 -8 45 53 45 143 L45 147 C45 245 103 295 221 295 C257 295 291 290 322 281 L322 338 L322 338 Z M220 229 C138 229 122 191 122 146 L122 142 C122 95 143 62 210 62 C253 62 287 76 322 106 L322 214 C289 224 250 229 220 229 L220 229 Z M341 644 C341 589 297 545 242 545 C186 545 142 589 142 644 C142 699 186 743 242 743 C297 743 341 699 341 644 L341 644 Z M296 644 C296 674 272 699 242 699 C212 699 188 674 188 644 C188 614 212 590 242 590 C272 590 296 614 296 644 L296 644 Z " />
<glyph glyph-name="ae" unicode="&#xe6;" horiz-adv-x="712" d="M502 203 C472 203 435 206 400 212 L400 153 C400 97 437 61 509 61 C551 61 578 73 613 89 C616 90 620 92 627 92 C647 92 662 75 662 57 C662 8 553 -8 503 -8 C437 -8 391 19 365 63 C318 15 264 -8 198 -8 C95 -8 45 53 45 143 L45 147 C45 245 103 295 221 295 C257 295 291 290 322 281 L322 338 C322 411 287 445 215 445 C180 445 161 436 139 424 C136 423 124 416 113 416 C94 416 86 434 85 449 C81 495 156 514 225 514 C295 514 338 486 361 432 C385 481 434 514 509 514 C615 514 671 450 671 351 C671 259 621 203 502 203 L502 203 Z M594 351 C594 416 561 443 503 443 C438 443 400 408 400 352 L400 276 C437 272 485 269 505 269 C580 269 594 310 594 351 L594 351 Z M322 106 L322 214 C289 224 250 229 220 229 C138 229 122 191 122 146 L122 142 C122 95 143 62 210 62 C253 62 287 76 322 106 L322 106 Z " />
<glyph glyph-name="ccedilla" unicode="&#xe7;" horiz-adv-x="393" d="M334 -128 C334 -177 289 -224 195 -211 C164 -207 135 -187 147 -164 C156 -147 171 -156 200 -162 C247 -171 269 -143 269 -121 C269 -97 248 -87 209 -85 C178 -83 168 -77 172 -53 L180 -4 C86 12 45 86 45 176 L45 327 C45 430 99 511 224 511 C271 511 363 497 363 450 C363 432 348 416 329 416 C324 416 319 417 313 419 C289 431 267 442 232 442 C154 442 123 400 123 327 L123 176 C123 103 154 61 232 61 C267 61 289 72 313 84 C319 86 324 87 329 87 C348 87 363 71 363 53 C363 7 278 -7 229 -8 L224 -40 C306 -41 334 -76 334 -128 L334 -128 Z " />
<glyph glyph-name="egrave" unicode="&#xe8;" horiz-adv-x="435" d="M232 61 C274 61 301 73 336 89 C338 90 343 92 350 92 C370 92 385 75 385 57 C385 8 277 -8 223 -8 C110 -8 45 64 45 158 L45 345 C45 441 109 514 228 514 C339 514 394 450 394 351 C394 259 344 203 225 203 C195 203 158 206 123 212 L123 153 C123 97 160 61 232 61 L232 61 Z M317 351 C317 416 284 443 226 443 C161 443 123 408 123 352 L123 276 C160 271 208 269 228 269 C304 269 317 310 317 351 L317 351 Z M170 705 L248 624 C252 619 253 614 253 609 C253 588 237 574 220 574 C207 574 199 581 188 592 L107 678 C103 683 102 690 102 695 C102 714 119 728 133 728 C151 728 156 718 170 705 L170 705 Z " />
<glyph glyph-name="eacute" unicode="&#xe9;" horiz-adv-x="435" d="M232 61 C274 61 301 73 336 89 C338 90 343 92 350 92 C370 92 385 75 385 57 C385 8 277 -8 223 -8 C110 -8 45 64 45 158 L45 345 C45 441 109 514 228 514 C339 514 394 450 394 351 C394 259 344 203 225 203 C195 203 158 206 123 212 L123 153 C123 97 160 61 232 61 L232 61 Z M317 351 C317 416 284 443 226 443 C161 443 123 408 123 352 L123 276 C160 271 208 269 228 269 C304 269 317 310 317 351 L317 351 Z M184 624 L262 705 C276 718 281 728 299 728 C313 728 330 714 330 695 C330 690 329 683 325 678 L244 592 C232 581 225 574 212 574 C194 574 179 588 179 609 C179 614 180 619 184 624 L184 624 Z " />
<glyph glyph-name="ecircumflex" unicode="&#xea;" horiz-adv-x="435" d="M232 61 C274 61 301 73 336 89 C338 90 343 92 350 92 C370 92 385 75 385 57 C385 8 277 -8 223 -8 C110 -8 45 64 45 158 L45 345 C45 441 109 514 228 514 C339 514 394 450 394 351 C394 259 344 203 225 203 C195 203 158 206 123 212 L123 153 C123 97 160 61 232 61 L232 61 Z M317 351 C317 416 284 443 226 443 C161 443 123 408 123 352 L123 276 C160 271 208 269 228 269 C304 269 317 310 317 351 L317 351 Z M217 636 L142 575 C139 571 129 569 123 569 C110 569 98 582 98 595 C98 606 106 616 116 625 L195 692 C201 696 208 700 217 700 C226 700 233 696 239 692 L318 625 C328 616 336 606 336 595 C336 582 324 569 310 569 C305 569 295 571 292 575 L217 636 L217 636 Z " />
<glyph glyph-name="edieresis" unicode="&#xeb;" horiz-adv-x="435" d="M232 61 C274 61 301 73 336 89 C338 90 343 92 350 92 C370 92 385 75 385 57 C385 8 277 -8 223 -8 C110 -8 45 64 45 158 L45 345 C45 441 109 514 228 514 C339 514 394 450 394 351 C394 259 344 203 225 203 C195 203 158 206 123 212 L123 153 C123 97 160 61 232 61 L232 61 Z M317 351 C317 416 284 443 226 443 C161 443 123 408 123 352 L123 276 C160 271 208 269 228 269 C304 269 317 310 317 351 L317 351 Z M349 639 C349 612 328 590 302 590 C276 590 254 613 254 639 C254 664 276 686 302 686 C328 686 349 665 349 639 L349 639 Z M180 639 C180 612 159 590 132 590 C106 590 86 613 86 639 C86 664 106 686 132 686 C159 686 180 665 180 639 L180 639 Z " />
<glyph glyph-name="igrave" unicode="&#xec;" horiz-adv-x="245" d="M161 31 C161 9 144 -8 122 -8 C100 -8 83 9 83 31 L83 472 C83 493 100 511 122 511 C144 511 161 493 161 472 L161 31 L161 31 Z M83 705 L161 624 C165 619 166 614 166 609 C166 588 150 574 133 574 C120 574 112 581 101 592 L20 678 C16 683 15 690 15 695 C15 714 32 728 46 728 C64 728 69 718 83 705 L83 705 Z " />
<glyph glyph-name="iacute" unicode="&#xed;" horiz-adv-x="245" d="M161 31 C161 9 144 -8 122 -8 C100 -8 83 9 83 31 L83 472 C83 493 100 511 122 511 C144 511 161 493 161 472 L161 31 L161 31 Z M87 624 L165 705 C179 718 184 728 202 728 C216 728 233 714 233 695 C233 690 232 683 228 678 L147 592 C135 581 128 574 115 574 C97 574 82 588 82 609 C82 614 83 619 87 624 L87 624 Z " />
<glyph glyph-name="icircumflex" unicode="&#xee;" horiz-adv-x="245" d="M161 31 C161 9 144 -8 122 -8 C100 -8 83 9 83 31 L83 472 C83 493 100 511 122 511 C144 511 161 493 161 472 L161 31 L161 31 Z M123 636 L48 575 C45 571 35 569 29 569 C16 569 4 582 4 595 C4 606 12 616 22 625 L101 692 C107 696 114 700 123 700 C132 700 139 696 145 692 L224 625 C234 616 242 606 242 595 C242 582 230 569 216 569 C211 569 201 571 198 575 L123 636 L123 636 Z " />
<glyph glyph-name="idieresis" unicode="&#xef;" horiz-adv-x="245" d="M161 31 C161 9 144 -8 122 -8 C100 -8 83 9 83 31 L83 472 C83 493 100 511 122 511 C144 511 161 493 161 472 L161 31 L161 31 Z M254 639 C254 612 233 590 207 590 C181 590 159 613 159 639 C159 664 181 686 207 686 C233 686 254 665 254 639 L254 639 Z M85 639 C85 612 64 590 37 590 C11 590 -9 613 -9 639 C-9 664 11 686 37 686 C64 686 85 665 85 639 L85 639 Z " />
<glyph glyph-name="eth" unicode="&#xf0;" horiz-adv-x="500" d="M493 647 C493 647 496 646 495 639 C494 629 489 620 480 615 L420 583 C445 521 459 435 459 325 C459 55 382 -10 258 -10 C107 -10 41 85 41 211 C41 336 105 437 227 437 C265 437 330 427 377 390 C377 461 369 512 356 548 L291 513 C280 507 272 506 268 506 C254 506 239 522 241 539 C242 549 247 558 256 563 L327 601 C297 634 260 639 226 643 C213 644 196 646 198 677 C200 699 210 709 253 709 C311 709 357 685 392 636 L445 665 C452 669 459 671 468 671 C492 670 493 647 493 647 L493 647 Z M379 281 L379 309 C347 343 280 365 234 365 C162 365 119 309 119 216 C119 130 156 64 253 64 C349 64 379 129 379 281 L379 281 Z " />
<glyph glyph-name="ntilde" unicode="&#xf1;" horiz-adv-x="509" d="M155 371 L155 31 C155 10 142 -7 116 -7 C90 -7 77 10 77 31 L77 371 C77 426 68 426 59 441 C57 445 52 451 52 461 C52 481 68 496 89 496 C107 496 120 484 131 467 C175 498 226 512 274 512 C380 512 433 436 433 323 L433 31 C433 10 419 -7 394 -7 C369 -7 355 10 355 31 L355 323 C355 399 323 442 263 442 C224 442 186 426 152 400 C154 389 155 379 155 371 L155 371 Z M381 650 C381 615 335 591 299 589 C256 589 229 618 199 621 C162 621 157 594 135 594 C120 594 107 605 105 621 C105 658 144 686 187 686 C229 686 255 657 287 654 C325 654 327 679 351 682 C367 682 381 668 381 650 L381 650 Z " />
<glyph glyph-name="ograve" unicode="&#xf2;" horiz-adv-x="464" d="M232 -8 C110 -8 45 70 45 170 L45 337 C45 437 110 515 232 515 C354 515 419 437 419 337 L419 170 C419 70 354 -8 232 -8 L232 -8 Z M232 64 C304 64 341 104 341 170 L341 338 C341 403 304 443 232 443 C160 443 123 403 123 338 L123 170 C123 104 160 64 232 64 L232 64 Z M197 705 L275 624 C279 619 280 614 280 609 C280 588 264 574 247 574 C234 574 226 581 215 592 L134 678 C130 683 129 690 129 695 C129 714 146 728 160 728 C178 728 183 718 197 705 L197 705 Z " />
<glyph glyph-name="oacute" unicode="&#xf3;" horiz-adv-x="464" d="M232 -8 C110 -8 45 70 45 170 L45 337 C45 437 110 515 232 515 C354 515 419 437 419 337 L419 170 C419 70 354 -8 232 -8 L232 -8 Z M232 64 C304 64 341 104 341 170 L341 338 C341 403 304 443 232 443 C160 443 123 403 123 338 L123 170 C123 104 160 64 232 64 L232 64 Z M161 624 L239 705 C253 718 258 728 276 728 C290 728 307 714 307 695 C307 690 306 683 302 678 L221 592 C209 581 202 574 189 574 C171 574 156 588 156 609 C156 614 157 619 161 624 L161 624 Z " />
<glyph glyph-name="ocircumflex" unicode="&#xf4;" horiz-adv-x="464" d="M232 -8 C110 -8 45 70 45 170 L45 337 C45 437 110 515 232 515 C354 515 419 437 419 337 L419 170 C419 70 354 -8 232 -8 L232 -8 Z M232 64 C304 64 341 104 341 170 L341 338 C341 403 304 443 232 443 C160 443 123 403 123 338 L123 170 C123 104 160 64 232 64 L232 64 Z M232 636 L157 575 C154 571 144 569 138 569 C125 569 113 582 113 595 C113 606 121 616 131 625 L210 692 C216 696 223 700 232 700 C241 700 248 696 254 692 L333 625 C343 616 351 606 351 595 C351 582 339 569 325 569 C320 569 310 571 307 575 L232 636 L232 636 Z " />
<glyph glyph-name="otilde" unicode="&#xf5;" horiz-adv-x="464" d="M232 -8 C110 -8 45 70 45 170 L45 337 C45 437 110 515 232 515 C354 515 419 437 419 337 L419 170 C419 70 354 -8 232 -8 L232 -8 Z M232 64 C304 64 341 104 341 170 L341 338 C341 403 304 443 232 443 C160 443 123 403 123 338 L123 170 C123 104 160 64 232 64 L232 64 Z M370 650 C370 615 324 591 288 589 C245 589 218 618 188 621 C151 621 146 594 124 594 C109 594 96 605 94 621 C94 658 133 686 176 686 C218 686 244 657 276 654 C314 654 316 679 340 682 C356 682 370 668 370 650 L370 650 Z " />
<glyph glyph-name="odieresis" unicode="&#xf6;" horiz-adv-x="464" d="M232 -8 C110 -8 45 70 45 170 L45 337 C45 437 110 515 232 515 C354 515 419 437 419 337 L419 170 C419 70 354 -8 232 -8 L232 -8 Z M232 64 C304 64 341 104 341 170 L341 338 C341 403 304 443 232 443 C160 443 123 403 123 338 L123 170 C123 104 160 64 232 64 L232 64 Z M363 639 C363 612 342 590 316 590 C290 590 268 613 268 639 C268 664 290 686 316 686 C342 686 363 665 363 639 L363 639 Z M194 639 C194 612 173 590 146 590 C120 590 100 613 100 639 C100 664 120 686 146 686 C173 686 194 665 194 639 L194 639 Z " />
<glyph glyph-name="oslash" unicode="&#xf8;" horiz-adv-x="464" d="M40 21 L73 68 C54 96 45 132 45 170 L45 337 C45 437 110 515 232 515 C285 515 327 500 358 475 L385 514 C393 525 409 529 421 520 C434 511 436 496 428 484 L393 435 C410 407 419 373 419 337 L419 170 C419 70 354 -8 232 -8 C181 -8 140 6 109 29 L83 -9 C75 -20 58 -23 47 -15 C35 -7 32 9 40 21 L40 21 Z M123 170 C123 160 124 151 125 143 L314 413 C296 432 269 443 232 443 C160 443 123 403 123 338 L123 170 L123 170 Z M232 64 C304 64 341 104 341 170 L341 338 C341 345 341 351 340 358 L152 90 C170 73 197 64 232 64 L232 64 Z " />
<glyph glyph-name="ugrave" unicode="&#xf9;" horiz-adv-x="509" d="M352 123 L352 473 C352 494 365 511 391 511 C417 511 430 494 430 473 L430 123 C430 68 440 68 448 53 C450 49 455 42 455 33 C455 14 439 -2 418 -2 C399 -2 386 10 375 28 C331 3 280 -8 233 -8 C127 -8 74 68 74 181 L74 473 C74 494 88 511 113 511 C138 511 152 494 152 473 L152 181 C152 105 184 62 244 62 C283 62 321 74 354 95 C353 105 352 115 352 123 L352 123 Z M206 705 L284 624 C288 619 289 614 289 609 C289 588 273 574 256 574 C243 574 235 581 224 592 L143 678 C139 683 138 690 138 695 C138 714 155 728 169 728 C187 728 192 718 206 705 L206 705 Z " />
<glyph glyph-name="uacute" unicode="&#xfa;" horiz-adv-x="509" d="M352 123 L352 473 C352 494 365 511 391 511 C417 511 430 494 430 473 L430 123 C430 68 440 68 448 53 C450 49 455 42 455 33 C455 14 439 -2 418 -2 C399 -2 386 10 375 28 C331 3 280 -8 233 -8 C127 -8 74 68 74 181 L74 473 C74 494 88 511 113 511 C138 511 152 494 152 473 L152 181 C152 105 184 62 244 62 C283 62 321 74 354 95 C353 105 352 115 352 123 L352 123 Z M217 624 L295 705 C309 718 314 728 332 728 C346 728 363 714 363 695 C363 690 362 683 358 678 L277 592 C265 581 258 574 245 574 C227 574 212 588 212 609 C212 614 213 619 217 624 L217 624 Z " />
<glyph glyph-name="ucircumflex" unicode="&#xfb;" horiz-adv-x="509" d="M352 123 L352 473 C352 494 365 511 391 511 C417 511 430 494 430 473 L430 123 C430 68 440 68 448 53 C450 49 455 42 455 33 C455 14 439 -2 418 -2 C399 -2 386 10 375 28 C331 3 280 -8 233 -8 C127 -8 74 68 74 181 L74 473 C74 494 88 511 113 511 C138 511 152 494 152 473 L152 181 C152 105 184 62 244 62 C283 62 321 74 354 95 C353 105 352 115 352 123 L352 123 Z M254 636 L179 575 C176 571 166 569 160 569 C147 569 135 582 135 595 C135 606 143 616 153 625 L232 692 C238 696 245 700 254 700 C263 700 270 696 276 692 L355 625 C365 616 373 606 373 595 C373 582 361 569 347 569 C342 569 332 571 329 575 L254 636 L254 636 Z " />
<glyph glyph-name="udieresis" unicode="&#xfc;" horiz-adv-x="509" d="M352 123 L352 473 C352 494 365 511 391 511 C417 511 430 494 430 473 L430 123 C430 68 440 68 448 53 C450 49 455 42 455 33 C455 14 439 -2 418 -2 C399 -2 386 10 375 28 C331 3 280 -8 233 -8 C127 -8 74 68 74 181 L74 473 C74 494 88 511 113 511 C138 511 152 494 152 473 L152 181 C152 105 184 62 244 62 C283 62 321 74 354 95 C353 105 352 115 352 123 L352 123 Z M386 639 C386 612 365 590 339 590 C313 590 291 613 291 639 C291 664 313 686 339 686 C365 686 386 665 386 639 L386 639 Z M217 639 C217 612 196 590 169 590 C143 590 123 613 123 639 C123 664 143 686 169 686 C196 686 217 665 217 639 L217 639 Z " />
<glyph glyph-name="yacute" unicode="&#xfd;" horiz-adv-x="412" d="M397 460 L275 63 C227 -93 189 -200 59 -203 C36 -203 19 -187 19 -165 C19 -147 33 -129 56 -128 C119 -125 147 -91 177 2 L18 461 C16 464 16 471 16 475 C16 496 33 511 55 511 C70 511 84 502 90 485 L215 106 L324 485 C330 502 345 511 360 511 C380 511 399 495 399 472 C399 468 398 464 397 460 L397 460 Z M183 624 L261 705 C275 718 280 728 298 728 C312 728 329 714 329 695 C329 690 328 683 324 678 L243 592 C231 581 224 574 211 574 C193 574 178 588 178 609 C178 614 179 619 183 624 L183 624 Z " />
<glyph glyph-name="thorn" unicode="&#xfe;" horiz-adv-x="485" d="M152 396 L152 132 C180 101 216 82 266 82 C333 82 362 115 362 170 L362 358 C362 413 333 446 266 446 C216 446 180 427 152 396 L152 396 Z M74 -179 L74 687 C74 707 88 725 113 725 C138 725 152 707 152 687 L152 473 C189 499 231 514 285 514 C399 514 440 446 440 358 L440 170 C440 82 399 14 285 14 C231 14 189 29 152 55 L152 -179 C152 -199 138 -217 113 -217 C88 -217 74 -199 74 -179 L74 -179 Z " />
<glyph glyph-name="ydieresis" unicode="&#xff;" horiz-adv-x="412" d="M397 460 L275 63 C227 -93 189 -200 59 -203 C36 -203 19 -187 19 -165 C19 -147 33 -129 56 -128 C119 -125 147 -91 177 2 L18 461 C16 464 16 471 16 475 C16 496 33 511 55 511 C70 511 84 502 90 485 L215 106 L324 485 C330 502 345 511 360 511 C380 511 399 495 399 472 C399 468 398 464 397 460 L397 460 Z M337 639 C337 612 316 590 290 590 C264 590 242 613 242 639 C242 664 264 686 290 686 C316 686 337 665 337 639 L337 639 Z M168 639 C168 612 147 590 120 590 C94 590 74 613 74 639 C74 664 94 686 120 686 C147 686 168 665 168 639 L168 639 Z " />
<glyph glyph-name="Amacron" unicode="&#x100;" horiz-adv-x="549" d="M105 20 C99 2 81 -10 67 -10 C44 -10 25 6 25 30 C25 34 26 42 27 45 L222 662 C231 692 245 715 274 715 C304 715 317 693 327 662 L522 45 C523 42 524 34 524 30 C524 6 506 -10 482 -10 C467 -10 448 2 443 20 L400 159 L147 159 L105 20 L105 20 Z M171 237 L377 237 L274 576 L171 237 L171 237 Z M435 837 C435 817 419 801 399 801 L150 801 C129 801 113 817 113 837 C113 857 129 874 150 874 L399 874 C419 874 435 857 435 837 L435 837 Z " />
<glyph glyph-name="amacron" unicode="&#x101;" horiz-adv-x="482" d="M322 338 C322 411 287 445 215 445 C180 445 161 436 139 424 C136 423 124 416 113 416 C94 416 86 434 85 449 C81 495 156 514 225 514 C350 514 400 444 400 312 L400 92 C400 72 406 62 418 62 C421 62 422 63 426 63 C445 63 455 46 455 29 C455 4 432 -5 410 -5 C377 -5 350 14 335 45 C297 10 252 -8 198 -8 C95 -8 45 53 45 143 L45 147 C45 245 103 295 221 295 C257 295 291 290 322 281 L322 338 L322 338 Z M220 229 C138 229 122 191 122 146 L122 142 C122 95 143 62 210 62 C253 62 287 76 322 106 L322 214 C289 224 250 229 220 229 L220 229 Z M379 637 C379 617 363 601 343 601 L94 601 C73 601 57 617 57 637 C57 657 73 674 94 674 L343 674 C363 674 379 657 379 637 L379 637 Z " />
<glyph glyph-name="Abreve" unicode="&#x102;" horiz-adv-x="549" d="M105 20 C99 2 81 -10 67 -10 C44 -10 25 6 25 30 C25 34 26 42 27 45 L222 662 C231 692 245 715 274 715 C304 715 317 693 327 662 L522 45 C523 42 524 34 524 30 C524 6 506 -10 482 -10 C467 -10 448 2 443 20 L400 159 L147 159 L105 20 L105 20 Z M171 237 L377 237 L274 576 L171 237 L171 237 Z M274 833 C296 833 318 844 339 874 C346 885 358 890 369 890 C386 890 402 879 395 853 C382 799 319 772 274 772 C229 772 166 799 152 853 C146 879 162 890 179 890 C190 890 202 885 209 874 C230 844 251 833 274 833 L274 833 Z " />
<glyph glyph-name="abreve" unicode="&#x103;" horiz-adv-x="482" d="M322 338 C322 411 287 445 215 445 C180 445 161 436 139 424 C136 423 124 416 113 416 C94 416 86 434 85 449 C81 495 156 514 225 514 C350 514 400 444 400 312 L400 92 C400 72 406 62 418 62 C421 62 422 63 426 63 C445 63 455 46 455 29 C455 4 432 -5 410 -5 C377 -5 350 14 335 45 C297 10 252 -8 198 -8 C95 -8 45 53 45 143 L45 147 C45 245 103 295 221 295 C257 295 291 290 322 281 L322 338 L322 338 Z M220 229 C138 229 122 191 122 146 L122 142 C122 95 143 62 210 62 C253 62 287 76 322 106 L322 214 C289 224 250 229 220 229 L220 229 Z M241 633 C263 633 285 644 306 674 C313 685 325 690 336 690 C353 690 369 679 362 653 C349 599 286 572 241 572 C196 572 133 599 119 653 C113 679 129 690 146 690 C157 690 169 685 176 674 C197 644 218 633 241 633 L241 633 Z " />
<glyph glyph-name="Aogonek" unicode="&#x104;" horiz-adv-x="549" d="M592 -156 C592 -190 546 -195 515 -195 C453 -195 412 -167 412 -105 C412 -70 430 -29 453 3 C448 7 445 13 443 20 L400 159 L147 159 L105 20 C99 2 81 -10 67 -10 C44 -10 25 6 25 30 C25 34 26 42 27 45 L222 662 C231 692 245 715 274 715 C304 715 317 693 327 662 L522 45 C523 42 524 34 524 30 C524 16 516 7 509 -1 C489 -24 479 -61 479 -89 C479 -114 493 -134 523 -134 C547 -134 554 -129 565 -129 C580 -129 592 -142 592 -156 L592 -156 Z M171 237 L377 237 L274 576 L171 237 L171 237 Z " />
<glyph glyph-name="aogonek" unicode="&#x105;" horiz-adv-x="482" d="M518 -156 C518 -190 472 -195 441 -195 C379 -195 338 -167 338 -105 C338 -70 354 -32 379 1 C360 9 345 24 335 45 C297 10 252 -8 198 -8 C95 -8 45 53 45 143 L45 147 C45 245 103 295 221 295 C257 295 291 290 322 281 L322 338 C322 411 287 445 215 445 C180 445 161 436 139 424 C136 423 124 416 113 416 C94 416 86 434 85 449 C81 495 156 514 225 514 C350 514 400 444 400 312 L400 92 C400 72 406 62 418 62 C421 62 422 63 426 63 C445 63 455 46 455 29 C455 14 445 8 436 0 C415 -21 405 -61 405 -89 C405 -114 419 -134 449 -134 C473 -134 480 -129 491 -129 C506 -129 518 -142 518 -156 L518 -156 Z M220 229 C138 229 122 191 122 146 L122 142 C122 95 143 62 210 62 C253 62 287 76 322 106 L322 214 C289 224 250 229 220 229 L220 229 Z " />
<glyph glyph-name="Cacute" unicode="&#x106;" horiz-adv-x="482" d="M45 246 L45 460 C45 614 116 715 270 715 C361 715 447 676 447 629 C447 610 432 594 411 594 C397 594 391 601 375 611 C345 632 314 642 275 642 C162 642 125 572 125 460 L125 246 C125 134 162 64 275 64 C314 64 345 74 375 95 C392 105 397 112 411 112 C432 112 447 96 447 77 C447 30 361 -9 270 -9 C116 -9 45 92 45 246 L45 246 Z M238 824 L316 905 C330 918 335 928 353 928 C367 928 384 914 384 895 C384 890 383 883 379 878 L298 792 C286 781 279 774 266 774 C248 774 233 788 233 809 C233 814 234 819 238 824 L238 824 Z " />
<glyph glyph-name="cacute" unicode="&#x107;" horiz-adv-x="393" d="M45 176 L45 327 C45 430 99 511 224 511 C271 511 363 497 363 450 C363 432 348 416 329 416 C324 416 319 417 313 419 C289 431 267 442 232 442 C154 442 123 400 123 327 L123 176 C123 103 154 61 232 61 C267 61 289 72 313 84 C319 86 324 87 329 87 C348 87 363 71 363 53 C363 6 271 -8 224 -8 C99 -8 45 73 45 176 L45 176 Z M176 624 L254 705 C268 718 273 728 291 728 C305 728 322 714 322 695 C322 690 321 683 317 678 L236 592 C224 581 217 574 204 574 C186 574 171 588 171 609 C171 614 172 619 176 624 L176 624 Z " />
<glyph glyph-name="Ccircumflex" unicode="&#x108;" horiz-adv-x="482" d="M45 246 L45 460 C45 614 116 715 270 715 C361 715 447 676 447 629 C447 610 432 594 411 594 C397 594 391 601 375 611 C345 632 314 642 275 642 C162 642 125 572 125 460 L125 246 C125 134 162 64 275 64 C314 64 345 74 375 95 C392 105 397 112 411 112 C432 112 447 96 447 77 C447 30 361 -9 270 -9 C116 -9 45 92 45 246 L45 246 Z M267 836 L192 775 C189 771 179 769 173 769 C160 769 148 782 148 795 C148 806 156 816 166 825 L245 892 C251 896 258 900 267 900 C276 900 283 896 289 892 L368 825 C378 816 386 806 386 795 C386 782 374 769 360 769 C355 769 345 771 342 775 L267 836 L267 836 Z " />
<glyph glyph-name="ccircumflex" unicode="&#x109;" horiz-adv-x="393" d="M45 176 L45 327 C45 430 99 511 224 511 C271 511 363 497 363 450 C363 432 348 416 329 416 C324 416 319 417 313 419 C289 431 267 442 232 442 C154 442 123 400 123 327 L123 176 C123 103 154 61 232 61 C267 61 289 72 313 84 C319 86 324 87 329 87 C348 87 363 71 363 53 C363 6 271 -8 224 -8 C99 -8 45 73 45 176 L45 176 Z M197 636 L122 575 C119 571 109 569 103 569 C90 569 78 582 78 595 C78 606 86 616 96 625 L175 692 C181 696 188 700 197 700 C206 700 213 696 219 692 L298 625 C308 616 316 606 316 595 C316 582 304 569 290 569 C285 569 275 571 272 575 L197 636 L197 636 Z " />
<glyph glyph-name="Cdotaccent" unicode="&#x10a;" horiz-adv-x="482" d="M45 246 L45 460 C45 614 116 715 270 715 C361 715 447 676 447 629 C447 610 432 594 411 594 C397 594 391 601 375 611 C345 632 314 642 275 642 C162 642 125 572 125 460 L125 246 C125 134 162 64 275 64 C314 64 345 74 375 95 C392 105 397 112 411 112 C432 112 447 96 447 77 C447 30 361 -9 270 -9 C116 -9 45 92 45 246 L45 246 Z M288 839 C288 812 267 790 240 790 C214 790 194 813 194 839 C194 864 214 886 240 886 C267 886 288 865 288 839 L288 839 Z " />
<glyph glyph-name="cdotaccent" unicode="&#x10b;" horiz-adv-x="393" d="M45 176 L45 327 C45 430 99 511 224 511 C271 511 363 497 363 450 C363 432 348 416 329 416 C324 416 319 417 313 419 C289 431 267 442 232 442 C154 442 123 400 123 327 L123 176 C123 103 154 61 232 61 C267 61 289 72 313 84 C319 86 324 87 329 87 C348 87 363 71 363 53 C363 6 271 -8 224 -8 C99 -8 45 73 45 176 L45 176 Z M243 639 C243 612 222 590 195 590 C169 590 149 613 149 639 C149 664 169 686 195 686 C222 686 243 665 243 639 L243 639 Z " />
<glyph glyph-name="Ccaron" unicode="&#x10c;" horiz-adv-x="482" d="M45 246 L45 460 C45 614 116 715 270 715 C361 715 447 676 447 629 C447 610 432 594 411 594 C397 594 391 601 375 611 C345 632 314 642 275 642 C162 642 125 572 125 460 L125 246 C125 134 162 64 275 64 C314 64 345 74 375 95 C392 105 397 112 411 112 C432 112 447 96 447 77 C447 30 361 -9 270 -9 C116 -9 45 92 45 246 L45 246 Z M276 762 C266 762 258 766 252 771 L164 844 C151 855 144 864 144 878 C144 895 159 907 175 907 C181 907 187 904 193 900 L276 833 L359 900 C365 904 371 907 377 907 C393 907 408 895 408 878 C408 864 401 855 388 844 L300 771 C294 766 286 762 276 762 L276 762 Z " />
<glyph glyph-name="ccaron" unicode="&#x10d;" horiz-adv-x="393" d="M45 176 L45 327 C45 430 99 511 224 511 C271 511 363 497 363 450 C363 432 348 416 329 416 C324 416 319 417 313 419 C289 431 267 442 232 442 C154 442 123 400 123 327 L123 176 C123 103 154 61 232 61 C267 61 289 72 313 84 C319 86 324 87 329 87 C348 87 363 71 363 53 C363 6 271 -8 224 -8 C99 -8 45 73 45 176 L45 176 Z M223 562 C213 562 205 566 199 571 L111 644 C98 655 91 664 91 678 C91 695 106 707 122 707 C128 707 134 704 140 700 L223 633 L306 700 C312 704 318 707 324 707 C340 707 355 695 355 678 C355 664 348 655 335 644 L247 571 C241 566 233 562 223 562 L223 562 Z " />
<glyph glyph-name="Dcaron" unicode="&#x10e;" horiz-adv-x="554" d="M508 264 C508 127 439 0 234 0 L121 0 C95 0 73 22 73 48 L73 658 C73 684 95 706 121 706 L234 706 C438 706 508 585 508 451 L508 264 L508 264 Z M428 264 L428 451 C428 550 381 628 251 628 L153 628 L153 78 L251 78 C383 78 428 161 428 264 L428 264 Z M277 762 C267 762 259 766 253 771 L165 844 C152 855 145 864 145 878 C145 895 160 907 176 907 C182 907 188 904 194 900 L277 833 L360 900 C366 904 372 907 378 907 C394 907 409 895 409 878 C409 864 402 855 389 844 L301 771 C295 766 287 762 277 762 L277 762 Z " />
<glyph glyph-name="dcaron" unicode="&#x10f;" horiz-adv-x="605" d="M212 510 C245 510 287 503 323 491 L323 687 C323 708 337 725 362 725 C387 725 401 708 401 687 L401 114 C401 86 407 69 427 54 C431 48 434 43 434 34 C434 13 416 -1 399 -1 C376 -1 358 12 346 31 C302 9 254 -8 204 -8 C99 -8 45 69 45 181 L45 308 C45 427 85 510 212 510 L212 510 Z M323 114 L323 421 C290 435 246 442 222 442 C149 442 123 401 123 308 L123 181 C123 103 154 62 220 62 C252 62 291 73 325 91 C323 99 323 107 323 114 L323 114 Z M581 672 C581 605 532 508 505 508 C495 508 486 512 486 525 C486 557 511 575 523 617 C495 620 474 643 474 672 C474 701 498 725 528 725 C557 725 581 701 581 672 L581 672 Z " />
<glyph glyph-name="Dcroat" unicode="&#x110;" horiz-adv-x="574" d="M528 264 C528 127 459 0 254 0 L141 0 C115 0 93 22 93 48 L93 317 L54 317 C33 317 17 333 17 353 C17 373 33 390 54 390 L93 390 L93 658 C93 684 115 706 141 706 L254 706 C458 706 528 585 528 451 L528 264 L528 264 Z M339 353 C339 333 323 317 303 317 L173 317 L173 78 L271 78 C403 78 448 161 448 264 L448 451 C448 550 401 628 271 628 L173 628 L173 390 L303 390 C323 390 339 373 339 353 L339 353 Z " />
<glyph glyph-name="dcroat" unicode="&#x111;" horiz-adv-x="488" d="M484 606 C484 586 468 570 448 570 L401 570 L401 114 C401 86 407 69 427 54 C431 48 434 43 434 34 C434 13 416 -1 399 -1 C376 -1 358 12 346 31 C302 9 254 -8 204 -8 C99 -8 45 69 45 181 L45 308 C45 427 85 510 212 510 C245 510 287 503 323 491 L323 570 L199 570 C178 570 162 586 162 606 C162 626 178 643 199 643 L323 643 L323 687 C323 708 337 725 362 725 C387 725 401 708 401 687 L401 643 L448 643 C468 643 484 626 484 606 L484 606 Z M323 114 L323 421 C290 435 246 442 222 442 C149 442 123 401 123 308 L123 181 C123 103 154 62 220 62 C252 62 291 73 325 91 C323 99 323 107 323 114 L323 114 Z " />
<glyph glyph-name="Emacron" unicode="&#x112;" horiz-adv-x="474" d="M441 41 C441 18 423 0 401 0 L136 0 C103 0 73 11 73 47 L73 658 C73 681 93 705 120 705 L391 705 C413 705 431 687 431 665 C431 643 413 627 391 627 L153 627 L153 393 L372 393 C392 393 411 376 411 354 C411 332 394 315 372 315 L153 315 L153 78 L401 78 C422 78 441 61 441 41 L441 41 Z M398 837 C398 817 382 801 362 801 L113 801 C92 801 76 817 76 837 C76 857 92 874 113 874 L362 874 C382 874 398 857 398 837 L398 837 Z " />
<glyph glyph-name="emacron" unicode="&#x113;" horiz-adv-x="435" d="M232 61 C274 61 301 73 336 89 C338 90 343 92 350 92 C370 92 385 75 385 57 C385 8 277 -8 223 -8 C110 -8 45 64 45 158 L45 345 C45 441 109 514 228 514 C339 514 394 450 394 351 C394 259 344 203 225 203 C195 203 158 206 123 212 L123 153 C123 97 160 61 232 61 L232 61 Z M317 351 C317 416 284 443 226 443 C161 443 123 408 123 352 L123 276 C160 271 208 269 228 269 C304 269 317 310 317 351 L317 351 Z M378 637 C378 617 362 601 342 601 L93 601 C72 601 56 617 56 637 C56 657 72 674 93 674 L342 674 C362 674 378 657 378 637 L378 637 Z " />
<glyph glyph-name="Ebreve" unicode="&#x114;" horiz-adv-x="474" d="M441 41 C441 18 423 0 401 0 L136 0 C103 0 73 11 73 47 L73 658 C73 681 93 705 120 705 L391 705 C413 705 431 687 431 665 C431 643 413 627 391 627 L153 627 L153 393 L372 393 C392 393 411 376 411 354 C411 332 394 315 372 315 L153 315 L153 78 L401 78 C422 78 441 61 441 41 L441 41 Z M237 833 C259 833 281 844 302 874 C309 885 321 890 332 890 C349 890 365 879 358 853 C345 799 282 772 237 772 C192 772 129 799 115 853 C109 879 125 890 142 890 C153 890 165 885 172 874 C193 844 214 833 237 833 L237 833 Z " />
<glyph glyph-name="ebreve" unicode="&#x115;" horiz-adv-x="435" d="M232 61 C274 61 301 73 336 89 C338 90 343 92 350 92 C370 92 385 75 385 57 C385 8 277 -8 223 -8 C110 -8 45 64 45 158 L45 345 C45 441 109 514 228 514 C339 514 394 450 394 351 C394 259 344 203 225 203 C195 203 158 206 123 212 L123 153 C123 97 160 61 232 61 L232 61 Z M317 351 C317 416 284 443 226 443 C161 443 123 408 123 352 L123 276 C160 271 208 269 228 269 C304 269 317 310 317 351 L317 351 Z M217 633 C239 633 261 644 282 674 C289 685 301 690 312 690 C329 690 345 679 338 653 C325 599 262 572 217 572 C172 572 109 599 95 653 C89 679 105 690 122 690 C133 690 145 685 152 674 C173 644 194 633 217 633 L217 633 Z " />
<glyph glyph-name="Edotaccent" unicode="&#x116;" horiz-adv-x="474" d="M441 41 C441 18 423 0 401 0 L136 0 C103 0 73 11 73 47 L73 658 C73 681 93 705 120 705 L391 705 C413 705 431 687 431 665 C431 643 413 627 391 627 L153 627 L153 393 L372 393 C392 393 411 376 411 354 C411 332 394 315 372 315 L153 315 L153 78 L401 78 C422 78 441 61 441 41 L441 41 Z M284 839 C284 812 263 790 236 790 C210 790 190 813 190 839 C190 864 210 886 236 886 C263 886 284 865 284 839 L284 839 Z " />
<glyph glyph-name="edotaccent" unicode="&#x117;" horiz-adv-x="435" d="M232 61 C274 61 301 73 336 89 C338 90 343 92 350 92 C370 92 385 75 385 57 C385 8 277 -8 223 -8 C110 -8 45 64 45 158 L45 345 C45 441 109 514 228 514 C339 514 394 450 394 351 C394 259 344 203 225 203 C195 203 158 206 123 212 L123 153 C123 97 160 61 232 61 L232 61 Z M317 351 C317 416 284 443 226 443 C161 443 123 408 123 352 L123 276 C160 271 208 269 228 269 C304 269 317 310 317 351 L317 351 Z M264 639 C264 612 243 590 216 590 C190 590 170 613 170 639 C170 664 190 686 216 686 C243 686 264 665 264 639 L264 639 Z " />
<glyph glyph-name="Eogonek" unicode="&#x118;" horiz-adv-x="474" d="M483 -156 C483 -190 437 -195 406 -195 C344 -195 303 -167 303 -105 C303 -70 318 -32 341 0 L136 0 C103 0 73 11 73 47 L73 658 C73 681 93 705 120 705 L391 705 C413 705 431 687 431 665 C431 643 413 627 391 627 L153 627 L153 393 L372 393 C392 393 411 376 411 354 C411 332 394 315 372 315 L153 315 L153 78 L401 78 C422 78 441 61 441 41 C441 18 423 0 401 0 C388 -27 370 -61 370 -89 C370 -114 384 -134 414 -134 C438 -134 445 -129 456 -129 C471 -129 483 -142 483 -156 L483 -156 Z " />
<glyph glyph-name="eogonek" unicode="&#x119;" horiz-adv-x="435" d="M394 -156 C394 -190 348 -195 317 -195 C255 -195 214 -167 214 -105 C214 -72 226 -37 247 -7 C238 -7 230 -8 223 -8 C110 -8 45 64 45 158 L45 345 C45 441 109 514 228 514 C339 514 394 450 394 351 C394 259 344 203 225 203 C195 203 158 206 123 212 L123 153 C123 97 160 61 232 61 C274 61 301 73 336 89 C338 90 343 92 350 92 C370 92 385 75 385 57 C385 31 351 23 319 4 C287 -15 281 -60 281 -89 C281 -114 295 -134 325 -134 C349 -134 356 -129 367 -129 C382 -129 394 -142 394 -156 L394 -156 Z M317 351 C317 416 284 443 226 443 C161 443 123 408 123 352 L123 276 C160 271 208 269 228 269 C304 269 317 310 317 351 L317 351 Z " />
<glyph glyph-name="Ecaron" unicode="&#x11a;" horiz-adv-x="474" d="M441 41 C441 18 423 0 401 0 L136 0 C103 0 73 11 73 47 L73 658 C73 681 93 705 120 705 L391 705 C413 705 431 687 431 665 C431 643 413 627 391 627 L153 627 L153 393 L372 393 C392 393 411 376 411 354 C411 332 394 315 372 315 L153 315 L153 78 L401 78 C422 78 441 61 441 41 L441 41 Z M267 762 C257 762 249 766 243 771 L155 844 C142 855 135 864 135 878 C135 895 150 907 166 907 C172 907 178 904 184 900 L267 833 L350 900 C356 904 362 907 368 907 C384 907 399 895 399 878 C399 864 392 855 379 844 L291 771 C285 766 277 762 267 762 L267 762 Z " />
<glyph glyph-name="ecaron" unicode="&#x11b;" horiz-adv-x="435" d="M232 61 C274 61 301 73 336 89 C338 90 343 92 350 92 C370 92 385 75 385 57 C385 8 277 -8 223 -8 C110 -8 45 64 45 158 L45 345 C45 441 109 514 228 514 C339 514 394 450 394 351 C394 259 344 203 225 203 C195 203 158 206 123 212 L123 153 C123 97 160 61 232 61 L232 61 Z M317 351 C317 416 284 443 226 443 C161 443 123 408 123 352 L123 276 C160 271 208 269 228 269 C304 269 317 310 317 351 L317 351 Z M217 562 C207 562 199 566 193 571 L105 644 C92 655 85 664 85 678 C85 695 100 707 116 707 C122 707 128 704 134 700 L217 633 L300 700 C306 704 312 707 318 707 C334 707 349 695 349 678 C349 664 342 655 329 644 L241 571 C235 566 227 562 217 562 L217 562 Z " />
<glyph glyph-name="Gcircumflex" unicode="&#x11c;" horiz-adv-x="520" d="M125 460 L125 246 C125 134 162 64 275 64 C323 64 358 78 388 101 L388 316 L291 316 C271 316 253 333 253 354 C253 375 271 392 291 392 L410 392 C442 392 467 378 467 346 L467 107 C467 26 359 -9 270 -9 C116 -9 45 92 45 246 L45 460 C45 614 116 715 270 715 C361 715 447 676 447 629 C447 610 432 594 411 594 C397 594 391 601 375 611 C345 632 314 642 275 642 C162 642 125 572 125 460 L125 460 Z M260 836 L185 775 C182 771 172 769 166 769 C153 769 141 782 141 795 C141 806 149 816 159 825 L238 892 C244 896 251 900 260 900 C269 900 276 896 282 892 L361 825 C371 816 379 806 379 795 C379 782 367 769 353 769 C348 769 338 771 335 775 L260 836 L260 836 Z " />
<glyph glyph-name="gcircumflex" unicode="&#x11d;" horiz-adv-x="493" d="M231 514 C277 514 324 502 362 480 C384 521 420 538 442 538 C463 538 479 523 479 503 C479 493 475 486 472 483 C434 446 418 435 418 386 L418 324 C418 222 357 144 237 144 C207 144 181 148 158 157 C149 140 146 123 146 111 C146 76 178 67 200 67 L242 67 C356 67 442 20 442 -80 C442 -181 355 -243 237 -243 C124 -243 45 -186 45 -89 C45 -40 64 -2 98 31 C75 54 68 85 68 108 C68 132 76 163 106 190 C71 223 52 272 52 331 C52 435 111 514 231 514 L231 514 Z M340 385 C340 395 341 405 342 414 C311 433 278 444 241 444 C167 444 130 403 130 329 C130 261 162 216 237 216 C308 216 340 256 340 322 L340 385 L340 385 Z M202 -5 C185 -5 170 -3 157 0 C133 -21 123 -46 123 -78 C123 -138 162 -171 239 -171 C311 -171 364 -142 364 -82 C364 -29 324 -5 244 -5 L202 -5 L202 -5 Z M246 636 L171 575 C168 571 158 569 152 569 C139 569 127 582 127 595 C127 606 135 616 145 625 L224 692 C230 696 237 700 246 700 C255 700 262 696 268 692 L347 625 C357 616 365 606 365 595 C365 582 353 569 339 569 C334 569 324 571 321 575 L246 636 L246 636 Z " />
<glyph glyph-name="Gbreve" unicode="&#x11e;" horiz-adv-x="520" d="M125 460 L125 246 C125 134 162 64 275 64 C323 64 358 78 388 101 L388 316 L291 316 C271 316 253 333 253 354 C253 375 271 392 291 392 L410 392 C442 392 467 378 467 346 L467 107 C467 26 359 -9 270 -9 C116 -9 45 92 45 246 L45 460 C45 614 116 715 270 715 C361 715 447 676 447 629 C447 610 432 594 411 594 C397 594 391 601 375 611 C345 632 314 642 275 642 C162 642 125 572 125 460 L125 460 Z M260 833 C282 833 304 844 325 874 C332 885 344 890 355 890 C372 890 388 879 381 853 C368 799 305 772 260 772 C215 772 152 799 138 853 C132 879 148 890 165 890 C176 890 188 885 195 874 C216 844 237 833 260 833 L260 833 Z " />
<glyph glyph-name="gbreve" unicode="&#x11f;" horiz-adv-x="493" d="M231 514 C277 514 324 502 362 480 C384 521 420 538 442 538 C463 538 479 523 479 503 C479 493 475 486 472 483 C434 446 418 435 418 386 L418 324 C418 222 357 144 237 144 C207 144 181 148 158 157 C149 140 146 123 146 111 C146 76 178 67 200 67 L242 67 C356 67 442 20 442 -80 C442 -181 355 -243 237 -243 C124 -243 45 -186 45 -89 C45 -40 64 -2 98 31 C75 54 68 85 68 108 C68 132 76 163 106 190 C71 223 52 272 52 331 C52 435 111 514 231 514 L231 514 Z M340 385 C340 395 341 405 342 414 C311 433 278 444 241 444 C167 444 130 403 130 329 C130 261 162 216 237 216 C308 216 340 256 340 322 L340 385 L340 385 Z M202 -5 C185 -5 170 -3 157 0 C133 -21 123 -46 123 -78 C123 -138 162 -171 239 -171 C311 -171 364 -142 364 -82 C364 -29 324 -5 244 -5 L202 -5 L202 -5 Z M246 633 C268 633 290 644 311 674 C318 685 330 690 341 690 C358 690 374 679 367 653 C354 599 291 572 246 572 C201 572 138 599 124 653 C118 679 134 690 151 690 C162 690 174 685 181 674 C202 644 223 633 246 633 L246 633 Z " />
<glyph glyph-name="Gdotaccent" unicode="&#x120;" horiz-adv-x="520" d="M125 460 L125 246 C125 134 162 64 275 64 C323 64 358 78 388 101 L388 316 L291 316 C271 316 253 333 253 354 C253 375 271 392 291 392 L410 392 C442 392 467 378 467 346 L467 107 C467 26 359 -9 270 -9 C116 -9 45 92 45 246 L45 460 C45 614 116 715 270 715 C361 715 447 676 447 629 C447 610 432 594 411 594 C397 594 391 601 375 611 C345 632 314 642 275 642 C162 642 125 572 125 460 L125 460 Z M307 839 C307 812 286 790 259 790 C233 790 213 813 213 839 C213 864 233 886 259 886 C286 886 307 865 307 839 L307 839 Z " />
<glyph glyph-name="gdotaccent" unicode="&#x121;" horiz-adv-x="493" d="M231 514 C277 514 324 502 362 480 C384 521 420 538 442 538 C463 538 479 523 479 503 C479 493 475 486 472 483 C434 446 418 435 418 386 L418 324 C418 222 357 144 237 144 C207 144 181 148 158 157 C149 140 146 123 146 111 C146 76 178 67 200 67 L242 67 C356 67 442 20 442 -80 C442 -181 355 -243 237 -243 C124 -243 45 -186 45 -89 C45 -40 64 -2 98 31 C75 54 68 85 68 108 C68 132 76 163 106 190 C71 223 52 272 52 331 C52 435 111 514 231 514 L231 514 Z M340 385 C340 395 341 405 342 414 C311 433 278 444 241 444 C167 444 130 403 130 329 C130 261 162 216 237 216 C308 216 340 256 340 322 L340 385 L340 385 Z M202 -5 C185 -5 170 -3 157 0 C133 -21 123 -46 123 -78 C123 -138 162 -171 239 -171 C311 -171 364 -142 364 -82 C364 -29 324 -5 244 -5 L202 -5 L202 -5 Z M293 639 C293 612 272 590 245 590 C219 590 199 613 199 639 C199 664 219 686 245 686 C272 686 293 665 293 639 L293 639 Z " />
<glyph glyph-name="uni0122" unicode="&#x122;" horiz-adv-x="520" d="M125 460 L125 246 C125 134 162 64 275 64 C323 64 358 78 388 101 L388 316 L291 316 C271 316 253 333 253 354 C253 375 271 392 291 392 L410 392 C442 392 467 378 467 346 L467 107 C467 26 359 -9 270 -9 C116 -9 45 92 45 246 L45 460 C45 614 116 715 270 715 C361 715 447 676 447 629 C447 610 432 594 411 594 C397 594 391 601 375 611 C345 632 314 642 275 642 C162 642 125 572 125 460 L125 460 Z M334 -104 C334 -159 285 -238 258 -238 C248 -238 239 -233 239 -221 C239 -199 264 -187 276 -159 C248 -157 227 -133 227 -104 C227 -74 251 -51 281 -51 C310 -51 334 -75 334 -104 L334 -104 Z " />
<glyph glyph-name="uni0123" unicode="&#x123;" horiz-adv-x="493" d="M231 514 C277 514 324 502 362 480 C384 521 420 538 442 538 C463 538 479 523 479 503 C479 493 475 486 472 483 C434 446 418 435 418 386 L418 324 C418 222 357 144 237 144 C207 144 181 148 158 157 C149 140 146 123 146 111 C146 76 178 67 200 67 L242 67 C356 67 442 20 442 -80 C442 -181 355 -243 237 -243 C124 -243 45 -186 45 -89 C45 -40 64 -2 98 31 C75 54 68 85 68 108 C68 132 76 163 106 190 C71 223 52 272 52 331 C52 435 111 514 231 514 L231 514 Z M340 385 C340 395 341 405 342 414 C311 433 278 444 241 444 C167 444 130 403 130 329 C130 261 162 216 237 216 C308 216 340 256 340 322 L340 385 L340 385 Z M202 -5 C185 -5 170 -3 157 0 C133 -21 123 -46 123 -78 C123 -138 162 -171 239 -171 C311 -171 364 -142 364 -82 C364 -29 324 -5 244 -5 L202 -5 L202 -5 Z M194 637 C194 692 243 771 270 771 C280 771 289 766 289 754 C289 732 264 720 252 692 C280 690 301 666 301 637 C301 607 277 584 247 584 C218 584 194 608 194 637 L194 637 Z " />
<glyph glyph-name="Hcircumflex" unicode="&#x124;" horiz-adv-x="580" d="M506 31 C506 9 488 -10 466 -10 C445 -10 426 9 426 31 L426 314 L153 314 L153 31 C153 9 135 -10 113 -10 C91 -10 73 9 73 31 L73 675 C73 696 91 715 113 715 C135 715 153 696 153 675 L153 392 L426 392 L426 675 C426 696 445 715 466 715 C487 715 506 696 506 675 L506 31 L506 31 Z M290 836 L215 775 C212 771 202 769 196 769 C183 769 171 782 171 795 C171 806 179 816 189 825 L268 892 C274 896 281 900 290 900 C299 900 306 896 312 892 L391 825 C401 816 409 806 409 795 C409 782 397 769 383 769 C378 769 368 771 365 775 L290 836 L290 836 Z " />
<glyph glyph-name="hcircumflex" unicode="&#x125;" horiz-adv-x="507" d="M151 31 C151 9 135 -8 113 -8 C91 -8 74 9 74 31 L74 692 C74 712 90 731 112 731 C134 731 151 714 151 692 L151 472 C185 498 228 514 276 514 C383 514 432 445 432 348 L432 31 C432 9 414 -8 393 -8 C371 -8 354 9 354 31 L354 347 C354 408 329 441 267 441 C226 441 180 423 151 384 L151 31 L151 31 Z M290 836 L215 775 C212 771 202 769 196 769 C183 769 171 782 171 795 C171 806 179 816 189 825 L268 892 C274 896 281 900 290 900 C299 900 306 896 312 892 L391 825 C401 816 409 806 409 795 C409 782 397 769 383 769 C378 769 368 771 365 775 L290 836 L290 836 Z " />
<glyph glyph-name="Itilde" unicode="&#x128;" horiz-adv-x="227" d="M73 30 L73 675 C73 696 91 715 113 715 C135 715 153 696 153 675 L153 30 C153 9 135 -10 113 -10 C91 -10 73 9 73 30 L73 30 Z M252 850 C252 815 206 791 170 789 C127 789 100 818 70 821 C33 821 28 794 6 794 C-9 794 -22 805 -24 821 C-24 858 15 886 58 886 C100 886 126 857 158 854 C196 854 198 879 222 882 C238 882 252 868 252 850 L252 850 Z " />
<glyph glyph-name="itilde" unicode="&#x129;" horiz-adv-x="245" d="M161 31 C161 9 144 -8 122 -8 C100 -8 83 9 83 31 L83 472 C83 493 100 511 122 511 C144 511 161 493 161 472 L161 31 L161 31 Z M261 650 C261 615 215 591 179 589 C136 589 109 618 79 621 C42 621 37 594 15 594 C0 594 -13 605 -15 621 C-15 658 24 686 67 686 C109 686 135 657 167 654 C205 654 207 679 231 682 C247 682 261 668 261 650 L261 650 Z " />
<glyph glyph-name="Imacron" unicode="&#x12a;" horiz-adv-x="227" d="M73 30 L73 675 C73 696 91 715 113 715 C135 715 153 696 153 675 L153 30 C153 9 135 -10 113 -10 C91 -10 73 9 73 30 L73 30 Z M275 837 C275 817 259 801 239 801 L-10 801 C-31 801 -47 817 -47 837 C-47 857 -31 874 -10 874 L239 874 C259 874 275 857 275 837 L275 837 Z " />
<glyph glyph-name="imacron" unicode="&#x12b;" horiz-adv-x="245" d="M161 31 C161 9 144 -8 122 -8 C100 -8 83 9 83 31 L83 472 C83 493 100 511 122 511 C144 511 161 493 161 472 L161 31 L161 31 Z M284 637 C284 617 268 601 248 601 L-1 601 C-22 601 -38 617 -38 637 C-38 657 -22 674 -1 674 L248 674 C268 674 284 657 284 637 L284 637 Z " />
<glyph glyph-name="Ibreve" unicode="&#x12c;" horiz-adv-x="227" d="M73 30 L73 675 C73 696 91 715 113 715 C135 715 153 696 153 675 L153 30 C153 9 135 -10 113 -10 C91 -10 73 9 73 30 L73 30 Z M114 833 C136 833 158 844 179 874 C186 885 198 890 209 890 C226 890 242 879 235 853 C222 799 159 772 114 772 C69 772 6 799 -8 853 C-14 879 2 890 19 890 C30 890 42 885 49 874 C70 844 91 833 114 833 L114 833 Z " />
<glyph glyph-name="ibreve" unicode="&#x12d;" horiz-adv-x="245" d="M161 31 C161 9 144 -8 122 -8 C100 -8 83 9 83 31 L83 472 C83 493 100 511 122 511 C144 511 161 493 161 472 L161 31 L161 31 Z M123 633 C145 633 167 644 188 674 C195 685 207 690 218 690 C235 690 251 679 244 653 C231 599 168 572 123 572 C78 572 15 599 1 653 C-5 679 11 690 28 690 C39 690 51 685 58 674 C79 644 100 633 123 633 L123 633 Z " />
<glyph glyph-name="Iogonek" unicode="&#x12e;" horiz-adv-x="227" d="M221 -156 C221 -190 175 -195 144 -195 C82 -195 41 -167 41 -105 C41 -69 57 -30 83 3 C77 10 73 20 73 30 L73 675 C73 696 91 715 113 715 C135 715 153 696 153 675 L153 30 C153 18 145 8 139 0 C121 -24 108 -61 108 -89 C108 -114 122 -134 152 -134 C176 -134 183 -129 194 -129 C209 -129 221 -142 221 -156 L221 -156 Z " />
<glyph glyph-name="iogonek" unicode="&#x12f;" horiz-adv-x="245" d="M228 -156 C228 -190 182 -195 151 -195 C89 -195 48 -167 48 -105 C48 -68 65 -28 92 5 C86 12 83 21 83 31 L83 472 C83 493 100 511 122 511 C144 511 161 493 161 472 L161 31 C161 18 153 9 146 0 C127 -23 115 -61 115 -89 C115 -114 129 -134 159 -134 C183 -134 190 -129 201 -129 C216 -129 228 -142 228 -156 L228 -156 Z M170 668 C170 642 149 620 122 620 C95 620 74 642 74 668 C74 695 95 716 122 716 C149 716 170 695 170 668 L170 668 Z " />
<glyph glyph-name="Idotaccent" unicode="&#x130;" horiz-adv-x="227" d="M73 30 L73 675 C73 696 91 715 113 715 C135 715 153 696 153 675 L153 30 C153 9 135 -10 113 -10 C91 -10 73 9 73 30 L73 30 Z M161 839 C161 812 140 790 113 790 C87 790 67 813 67 839 C67 864 87 886 113 886 C140 886 161 865 161 839 L161 839 Z " />
<glyph glyph-name="dotlessi" unicode="&#x131;" horiz-adv-x="245" d="M161 31 C161 9 144 -8 122 -8 C100 -8 83 9 83 31 L83 472 C83 493 100 511 122 511 C144 511 161 493 161 472 L161 31 L161 31 Z " />
<glyph glyph-name="Jcircumflex" unicode="&#x134;" horiz-adv-x="385" d="M312 675 L312 225 C312 79 265 -10 110 -10 C82 -10 25 -7 25 35 C25 60 45 74 60 74 C71 74 90 67 121 67 C213 67 232 128 232 225 L232 675 C232 697 249 715 272 715 C293 715 312 696 312 675 L312 675 Z M270 836 L195 775 C192 771 182 769 176 769 C163 769 151 782 151 795 C151 806 159 816 169 825 L248 892 C254 896 261 900 270 900 C279 900 286 896 292 892 L371 825 C381 816 389 806 389 795 C389 782 377 769 363 769 C358 769 348 771 345 775 L270 836 L270 836 Z " />
<glyph glyph-name="jcircumflex" unicode="&#x135;" horiz-adv-x="245" d="M161 472 L161 -15 C161 -120 110 -189 20 -202 C12 -203 7 -203 1 -203 C-15 -203 -28 -193 -32 -177 C-39 -150 -17 -137 -2 -134 C52 -122 83 -92 83 -19 L83 472 C83 493 100 511 122 511 C144 511 161 493 161 472 L161 472 Z M123 636 L48 575 C45 571 35 569 29 569 C16 569 4 582 4 595 C4 606 12 616 22 625 L101 692 C107 696 114 700 123 700 C132 700 139 696 145 692 L224 625 C234 616 242 606 242 595 C242 582 230 569 216 569 C211 569 201 571 198 575 L123 636 L123 636 Z " />
<glyph glyph-name="uni0136" unicode="&#x136;" horiz-adv-x="498" d="M420 9 L203 324 L153 263 L153 31 C153 9 135 -10 113 -10 C91 -10 73 9 73 31 L73 675 C73 696 91 715 113 715 C135 715 153 696 153 675 L153 384 L406 696 C413 706 428 715 442 715 C457 715 479 703 477 675 C476 664 473 657 468 650 L253 386 L486 52 C490 45 491 40 491 33 C491 14 483 -10 454 -10 C439 -10 429 -4 420 9 L420 9 Z M341 -104 C341 -159 292 -238 265 -238 C255 -238 246 -233 246 -221 C246 -199 271 -187 283 -159 C255 -157 234 -133 234 -104 C234 -74 258 -51 288 -51 C317 -51 341 -75 341 -104 L341 -104 Z " />
<glyph glyph-name="uni0137" unicode="&#x137;" horiz-adv-x="439" d="M152 686 L152 313 L333 501 C338 507 348 510 357 510 C378 510 394 494 394 474 C394 464 391 455 384 448 L237 298 L406 48 C410 42 412 32 412 25 C411 5 395 -8 375 -8 C362 -8 351 -2 343 11 L188 247 L152 210 L152 31 C152 9 135 -8 113 -8 C91 -8 74 9 74 31 L74 686 C74 708 91 725 113 725 C135 725 152 708 152 686 L152 686 Z M300 -104 C300 -159 251 -238 224 -238 C214 -238 205 -233 205 -221 C205 -199 230 -187 242 -159 C214 -157 193 -133 193 -104 C193 -74 217 -51 247 -51 C276 -51 300 -75 300 -104 L300 -104 Z " />
<glyph glyph-name="Lacute" unicode="&#x139;" horiz-adv-x="448" d="M438 39 C438 17 421 0 400 0 L118 0 C94 0 73 20 73 45 L73 675 C73 696 91 715 113 715 C135 715 153 696 153 675 L153 77 L400 77 C420 77 438 60 438 39 L438 39 Z M94 824 L172 905 C186 918 191 928 209 928 C223 928 240 914 240 895 C240 890 239 883 235 878 L154 792 C142 781 135 774 122 774 C104 774 89 788 89 809 C89 814 90 819 94 824 L94 824 Z " />
<glyph glyph-name="lacute" unicode="&#x13a;" horiz-adv-x="228" d="M74 94 L74 686 C74 707 91 725 113 725 C135 725 152 708 152 686 L152 94 C152 72 154 59 166 47 C169 43 173 36 173 28 C173 8 157 -8 137 -8 C112 -8 74 4 74 94 L74 94 Z M86 810 L164 891 C178 904 183 914 201 914 C215 914 232 900 232 881 C232 876 231 869 227 864 L146 778 C134 767 127 760 114 760 C96 760 81 774 81 795 C81 800 82 805 86 810 L86 810 Z " />
<glyph glyph-name="uni013B" unicode="&#x13b;" horiz-adv-x="448" d="M438 39 C438 17 421 0 400 0 L118 0 C94 0 73 20 73 45 L73 675 C73 696 91 715 113 715 C135 715 153 696 153 675 L153 77 L400 77 C420 77 438 60 438 39 L438 39 Z M323 -104 C323 -159 274 -238 247 -238 C237 -238 228 -233 228 -221 C228 -199 253 -187 265 -159 C237 -157 216 -133 216 -104 C216 -74 240 -51 270 -51 C299 -51 323 -75 323 -104 L323 -104 Z " />
<glyph glyph-name="uni013C" unicode="&#x13c;" horiz-adv-x="228" d="M74 94 L74 686 C74 707 91 725 113 725 C135 725 152 708 152 686 L152 94 C152 72 154 59 166 47 C169 43 173 36 173 28 C173 8 157 -8 137 -8 C112 -8 74 4 74 94 L74 94 Z M168 -104 C168 -159 119 -238 92 -238 C82 -238 73 -233 73 -221 C73 -199 98 -187 110 -159 C82 -157 61 -133 61 -104 C61 -74 85 -51 115 -51 C144 -51 168 -75 168 -104 L168 -104 Z " />
<glyph glyph-name="Lcaron" unicode="&#x13d;" horiz-adv-x="448" d="M438 39 C438 17 421 0 400 0 L118 0 C94 0 73 20 73 45 L73 675 C73 696 91 715 113 715 C135 715 153 696 153 675 L153 77 L400 77 C420 77 438 60 438 39 L438 39 Z M397 672 C397 605 348 508 321 508 C311 508 302 512 302 525 C302 557 327 575 339 617 C311 620 290 643 290 672 C290 701 314 725 344 725 C373 725 397 701 397 672 L397 672 Z " />
<glyph glyph-name="lcaron" unicode="&#x13e;" horiz-adv-x="359" d="M74 94 L74 686 C74 707 91 725 113 725 C135 725 152 708 152 686 L152 94 C152 72 154 59 166 47 C169 43 173 36 173 28 C173 8 157 -8 137 -8 C112 -8 74 4 74 94 L74 94 Z M334 672 C334 605 285 508 258 508 C248 508 239 512 239 525 C239 557 264 575 276 617 C248 620 227 643 227 672 C227 701 251 725 281 725 C310 725 334 701 334 672 L334 672 Z " />
<glyph glyph-name="Lslash" unicode="&#x141;" horiz-adv-x="494" d="M484 39 C484 17 467 0 446 0 L164 0 C140 0 119 20 119 45 L119 292 L79 266 C72 261 64 255 56 255 C35 255 15 267 15 293 C15 304 21 316 32 323 L119 380 L119 675 C119 696 137 715 159 715 C181 715 199 696 199 675 L199 432 L253 468 C262 474 269 478 282 478 C296 478 310 468 315 453 C316 449 317 445 317 441 C317 430 311 419 301 412 L199 345 L199 77 L446 77 C466 77 484 60 484 39 L484 39 Z " />
<glyph glyph-name="lslash" unicode="&#x142;" horiz-adv-x="337" d="M120 94 L120 293 L79 266 C72 261 64 255 56 255 C35 255 15 267 15 293 C15 304 21 316 32 323 L120 380 L120 686 C120 707 137 725 159 725 C181 725 198 708 198 686 L198 432 L253 468 C262 474 269 478 282 478 C296 478 310 468 315 453 C316 449 317 445 317 441 C317 430 311 419 301 412 L198 344 L198 94 C198 72 200 59 212 47 C215 43 219 36 219 28 C219 8 203 -8 183 -8 C158 -8 120 4 120 94 L120 94 Z " />
<glyph glyph-name="Nacute" unicode="&#x143;" horiz-adv-x="600" d="M482 -10 C466 -10 449 -1 441 13 L153 546 L153 31 C153 9 134 -10 112 -10 C90 -10 73 9 73 31 L73 671 C73 696 91 715 116 715 C133 715 150 706 158 691 L446 159 L446 674 C446 696 465 715 487 715 C509 715 526 696 526 674 L526 34 C526 10 508 -10 482 -10 L482 -10 Z M270 824 L348 905 C362 918 367 928 385 928 C399 928 416 914 416 895 C416 890 415 883 411 878 L330 792 C318 781 311 774 298 774 C280 774 265 788 265 809 C265 814 266 819 270 824 L270 824 Z " />
<glyph glyph-name="nacute" unicode="&#x144;" horiz-adv-x="509" d="M155 371 L155 31 C155 10 142 -7 116 -7 C90 -7 77 10 77 31 L77 371 C77 426 68 426 59 441 C57 445 52 451 52 461 C52 481 68 496 89 496 C107 496 120 484 131 467 C175 498 226 512 274 512 C380 512 433 436 433 323 L433 31 C433 10 419 -7 394 -7 C369 -7 355 10 355 31 L355 323 C355 399 323 442 263 442 C224 442 186 426 152 400 C154 389 155 379 155 371 L155 371 Z M184 624 L262 705 C276 718 281 728 299 728 C313 728 330 714 330 695 C330 690 329 683 325 678 L244 592 C232 581 225 574 212 574 C194 574 179 588 179 609 C179 614 180 619 184 624 L184 624 Z " />
<glyph glyph-name="uni0145" unicode="&#x145;" horiz-adv-x="600" d="M482 -10 C466 -10 449 -1 441 13 L153 546 L153 31 C153 9 134 -10 112 -10 C90 -10 73 9 73 31 L73 671 C73 696 91 715 116 715 C133 715 150 706 158 691 L446 159 L446 674 C446 696 465 715 487 715 C509 715 526 696 526 674 L526 34 C526 10 508 -10 482 -10 L482 -10 Z M354 -104 C354 -159 305 -238 278 -238 C268 -238 259 -233 259 -221 C259 -199 284 -187 296 -159 C268 -157 247 -133 247 -104 C247 -74 271 -51 301 -51 C330 -51 354 -75 354 -104 L354 -104 Z " />
<glyph glyph-name="uni0146" unicode="&#x146;" horiz-adv-x="509" d="M155 371 L155 31 C155 10 142 -7 116 -7 C90 -7 77 10 77 31 L77 371 C77 426 68 426 59 441 C57 445 52 451 52 461 C52 481 68 496 89 496 C107 496 120 484 131 467 C175 498 226 512 274 512 C380 512 433 436 433 323 L433 31 C433 10 419 -7 394 -7 C369 -7 355 10 355 31 L355 323 C355 399 323 442 263 442 C224 442 186 426 152 400 C154 389 155 379 155 371 L155 371 Z M308 -104 C308 -159 259 -238 232 -238 C222 -238 213 -233 213 -221 C213 -199 238 -187 250 -159 C222 -157 201 -133 201 -104 C201 -74 225 -51 255 -51 C284 -51 308 -75 308 -104 L308 -104 Z " />
<glyph glyph-name="Ncaron" unicode="&#x147;" horiz-adv-x="600" d="M482 -10 C466 -10 449 -1 441 13 L153 546 L153 31 C153 9 134 -10 112 -10 C90 -10 73 9 73 31 L73 671 C73 696 91 715 116 715 C133 715 150 706 158 691 L446 159 L446 674 C446 696 465 715 487 715 C509 715 526 696 526 674 L526 34 C526 10 508 -10 482 -10 L482 -10 Z M300 762 C290 762 282 766 276 771 L188 844 C175 855 168 864 168 878 C168 895 183 907 199 907 C205 907 211 904 217 900 L300 833 L383 900 C389 904 395 907 401 907 C417 907 432 895 432 878 C432 864 425 855 412 844 L324 771 C318 766 310 762 300 762 L300 762 Z " />
<glyph glyph-name="ncaron" unicode="&#x148;" horiz-adv-x="509" d="M155 371 L155 31 C155 10 142 -7 116 -7 C90 -7 77 10 77 31 L77 371 C77 426 68 426 59 441 C57 445 52 451 52 461 C52 481 68 496 89 496 C107 496 120 484 131 467 C175 498 226 512 274 512 C380 512 433 436 433 323 L433 31 C433 10 419 -7 394 -7 C369 -7 355 10 355 31 L355 323 C355 399 323 442 263 442 C224 442 186 426 152 400 C154 389 155 379 155 371 L155 371 Z M254 562 C244 562 236 566 230 571 L142 644 C129 655 122 664 122 678 C122 695 137 707 153 707 C159 707 165 704 171 700 L254 633 L337 700 C343 704 349 707 355 707 C371 707 386 695 386 678 C386 664 379 655 366 644 L278 571 C272 566 264 562 254 562 L254 562 Z " />
<glyph glyph-name="Omacron" unicode="&#x14c;" horiz-adv-x="551" d="M275 -10 C122 -10 45 104 45 246 L45 460 C45 599 110 715 275 715 C440 715 505 599 505 460 L505 246 C505 104 428 -10 275 -10 L275 -10 Z M275 637 C165 637 125 566 125 460 L125 246 C125 141 172 68 275 68 C378 68 425 141 425 246 L425 460 C425 566 385 637 275 637 L275 637 Z M436 837 C436 817 420 801 400 801 L151 801 C130 801 114 817 114 837 C114 857 130 874 151 874 L400 874 C420 874 436 857 436 837 L436 837 Z " />
<glyph glyph-name="omacron" unicode="&#x14d;" horiz-adv-x="464" d="M232 -8 C110 -8 45 70 45 170 L45 337 C45 437 110 515 232 515 C354 515 419 437 419 337 L419 170 C419 70 354 -8 232 -8 L232 -8 Z M232 64 C304 64 341 104 341 170 L341 338 C341 403 304 443 232 443 C160 443 123 403 123 338 L123 170 C123 104 160 64 232 64 L232 64 Z M393 637 C393 617 377 601 357 601 L108 601 C87 601 71 617 71 637 C71 657 87 674 108 674 L357 674 C377 674 393 657 393 637 L393 637 Z " />
<glyph glyph-name="Obreve" unicode="&#x14e;" horiz-adv-x="551" d="M275 -10 C122 -10 45 104 45 246 L45 460 C45 599 110 715 275 715 C440 715 505 599 505 460 L505 246 C505 104 428 -10 275 -10 L275 -10 Z M275 637 C165 637 125 566 125 460 L125 246 C125 141 172 68 275 68 C378 68 425 141 425 246 L425 460 C425 566 385 637 275 637 L275 637 Z M275 833 C297 833 319 844 340 874 C347 885 359 890 370 890 C387 890 403 879 396 853 C383 799 320 772 275 772 C230 772 167 799 153 853 C147 879 163 890 180 890 C191 890 203 885 210 874 C231 844 252 833 275 833 L275 833 Z " />
<glyph glyph-name="obreve" unicode="&#x14f;" horiz-adv-x="464" d="M232 -8 C110 -8 45 70 45 170 L45 337 C45 437 110 515 232 515 C354 515 419 437 419 337 L419 170 C419 70 354 -8 232 -8 L232 -8 Z M232 64 C304 64 341 104 341 170 L341 338 C341 403 304 443 232 443 C160 443 123 403 123 338 L123 170 C123 104 160 64 232 64 L232 64 Z M232 633 C254 633 276 644 297 674 C304 685 316 690 327 690 C344 690 360 679 353 653 C340 599 277 572 232 572 C187 572 124 599 110 653 C104 679 120 690 137 690 C148 690 160 685 167 674 C188 644 209 633 232 633 L232 633 Z " />
<glyph glyph-name="Ohungarumlaut" unicode="&#x150;" horiz-adv-x="551" d="M275 -10 C122 -10 45 104 45 246 L45 460 C45 599 110 715 275 715 C440 715 505 599 505 460 L505 246 C505 104 428 -10 275 -10 L275 -10 Z M275 637 C165 637 125 566 125 460 L125 246 C125 141 172 68 275 68 C378 68 425 141 425 246 L425 460 C425 566 385 637 275 637 L275 637 Z M171 812 L234 906 C245 920 250 935 270 935 C287 935 303 918 303 900 C303 897 302 893 301 890 L236 791 C225 777 218 767 203 767 C184 767 169 781 169 800 C169 804 169 808 171 812 L171 812 Z M306 812 L369 906 C378 920 386 935 404 935 C419 935 439 919 439 902 C439 898 438 894 436 890 L371 791 C360 777 354 767 338 767 C319 767 304 781 304 800 C304 804 304 808 306 812 L306 812 Z " />
<glyph glyph-name="ohungarumlaut" unicode="&#x151;" horiz-adv-x="464" d="M232 -8 C110 -8 45 70 45 170 L45 337 C45 437 110 515 232 515 C354 515 419 437 419 337 L419 170 C419 70 354 -8 232 -8 L232 -8 Z M232 64 C304 64 341 104 341 170 L341 338 C341 403 304 443 232 443 C160 443 123 403 123 338 L123 170 C123 104 160 64 232 64 L232 64 Z M135 612 L198 706 C209 720 214 735 234 735 C251 735 267 718 267 700 C267 697 266 693 265 690 L200 591 C189 577 182 567 167 567 C148 567 133 581 133 600 C133 604 133 608 135 612 L135 612 Z M270 612 L333 706 C342 720 350 735 368 735 C383 735 403 719 403 702 C403 698 402 694 400 690 L335 591 C324 577 318 567 302 567 C283 567 268 581 268 600 C268 604 268 608 270 612 L270 612 Z " />
<glyph glyph-name="OE" unicode="&#x152;" horiz-adv-x="756" d="M723 41 C723 18 705 0 683 0 L448 0 C415 0 386 10 385 45 C353 11 310 -10 255 -10 C116 -10 45 96 45 226 L45 480 C45 609 104 715 255 715 C312 715 355 696 385 665 C389 685 407 705 432 705 L673 705 C695 705 713 687 713 665 C713 643 695 627 673 627 L465 627 L465 393 L654 393 C674 393 693 376 693 354 C693 332 676 315 654 315 L465 315 L465 78 L683 78 C704 78 723 61 723 41 L723 41 Z M255 637 C159 637 125 574 125 480 L125 226 C125 133 166 68 255 68 C344 68 385 133 385 226 L385 480 C385 574 351 637 255 637 L255 637 Z " />
<glyph glyph-name="oe" unicode="&#x153;" horiz-adv-x="731" d="M228 -8 C112 -8 45 71 45 170 L45 337 C45 436 112 515 228 515 C303 515 353 482 379 430 C403 481 453 514 528 514 C633 514 690 450 690 351 C690 259 640 203 521 203 C492 203 454 206 419 212 L419 153 C419 97 456 61 528 61 C570 61 597 73 632 89 C634 90 639 92 646 92 C666 92 681 75 681 57 C681 8 572 -8 522 -8 C450 -8 402 25 378 75 C353 24 302 -8 228 -8 L228 -8 Z M232 64 C304 64 341 104 341 170 L341 338 C341 403 304 443 232 443 C160 443 123 403 123 338 L123 170 C123 104 160 64 232 64 L232 64 Z M613 351 C613 416 580 443 522 443 C457 443 419 408 419 352 L419 276 C456 272 504 269 524 269 C600 269 613 310 613 351 L613 351 Z " />
<glyph glyph-name="Racute" unicode="&#x154;" horiz-adv-x="575" d="M511 505 C511 399 451 334 356 315 L516 52 C519 46 521 37 521 29 C521 8 494 -9 478 -9 C464 -9 452 -2 445 10 L268 310 L153 310 L153 32 C153 10 134 -10 112 -10 C91 -10 73 9 73 32 L73 657 C73 683 94 705 119 705 L293 705 C458 705 511 604 511 505 L511 505 Z M431 505 C431 564 405 627 289 627 L153 627 L153 387 L295 387 C383 387 431 428 431 505 L431 505 Z M217 824 L295 905 C309 918 314 928 332 928 C346 928 363 914 363 895 C363 890 362 883 358 878 L277 792 C265 781 258 774 245 774 C227 774 212 788 212 809 C212 814 213 819 217 824 L217 824 Z " />
<glyph glyph-name="racute" unicode="&#x155;" horiz-adv-x="337" d="M155 369 L155 31 C155 9 138 -8 116 -8 C94 -8 77 9 77 31 L77 369 C77 402 73 421 61 439 C57 445 54 450 54 459 C54 480 71 494 90 494 C106 494 120 483 130 467 C173 494 229 510 267 510 C307 510 319 493 319 472 C319 447 301 431 280 432 C239 433 203 433 153 396 C154 386 155 377 155 369 L155 369 Z M162 624 L240 705 C254 718 259 728 277 728 C291 728 308 714 308 695 C308 690 307 683 303 678 L222 592 C210 581 203 574 190 574 C172 574 157 588 157 609 C157 614 158 619 162 624 L162 624 Z " />
<glyph glyph-name="uni0156" unicode="&#x156;" horiz-adv-x="575" d="M511 505 C511 399 451 334 356 315 L516 52 C519 46 521 37 521 29 C521 8 494 -9 478 -9 C464 -9 452 -2 445 10 L268 310 L153 310 L153 32 C153 10 134 -10 112 -10 C91 -10 73 9 73 32 L73 657 C73 683 94 705 119 705 L293 705 C458 705 511 604 511 505 L511 505 Z M431 505 C431 564 405 627 289 627 L153 627 L153 387 L295 387 C383 387 431 428 431 505 L431 505 Z M341 -104 C341 -159 292 -238 265 -238 C255 -238 246 -233 246 -221 C246 -199 271 -187 283 -159 C255 -157 234 -133 234 -104 C234 -74 258 -51 288 -51 C317 -51 341 -75 341 -104 L341 -104 Z " />
<glyph glyph-name="uni0157" unicode="&#x157;" horiz-adv-x="337" d="M155 369 L155 31 C155 9 138 -8 116 -8 C94 -8 77 9 77 31 L77 369 C77 402 73 421 61 439 C57 445 54 450 54 459 C54 480 71 494 90 494 C106 494 120 483 130 467 C173 494 229 510 267 510 C307 510 319 493 319 472 C319 447 301 431 280 432 C239 433 203 433 153 396 C154 386 155 377 155 369 L155 369 Z M168 -104 C168 -159 119 -238 92 -238 C82 -238 73 -233 73 -221 C73 -199 98 -187 110 -159 C82 -157 61 -133 61 -104 C61 -74 85 -51 115 -51 C144 -51 168 -75 168 -104 L168 -104 Z " />
<glyph glyph-name="Rcaron" unicode="&#x158;" horiz-adv-x="575" d="M511 505 C511 399 451 334 356 315 L516 52 C519 46 521 37 521 29 C521 8 494 -9 478 -9 C464 -9 452 -2 445 10 L268 310 L153 310 L153 32 C153 10 134 -10 112 -10 C91 -10 73 9 73 32 L73 657 C73 683 94 705 119 705 L293 705 C458 705 511 604 511 505 L511 505 Z M431 505 C431 564 405 627 289 627 L153 627 L153 387 L295 387 C383 387 431 428 431 505 L431 505 Z M287 762 C277 762 269 766 263 771 L175 844 C162 855 155 864 155 878 C155 895 170 907 186 907 C192 907 198 904 204 900 L287 833 L370 900 C376 904 382 907 388 907 C404 907 419 895 419 878 C419 864 412 855 399 844 L311 771 C305 766 297 762 287 762 L287 762 Z " />
<glyph glyph-name="rcaron" unicode="&#x159;" horiz-adv-x="337" d="M155 369 L155 31 C155 9 138 -8 116 -8 C94 -8 77 9 77 31 L77 369 C77 402 73 421 61 439 C57 445 54 450 54 459 C54 480 71 494 90 494 C106 494 120 483 130 467 C173 494 229 510 267 510 C307 510 319 493 319 472 C319 447 301 431 280 432 C239 433 203 433 153 396 C154 386 155 377 155 369 L155 369 Z M169 562 C159 562 151 566 145 571 L57 644 C44 655 37 664 37 678 C37 695 52 707 68 707 C74 707 80 704 86 700 L169 633 L252 700 C258 704 264 707 270 707 C286 707 301 695 301 678 C301 664 294 655 281 644 L193 571 C187 566 179 562 169 562 L169 562 Z " />
<glyph glyph-name="Sacute" unicode="&#x15a;" horiz-adv-x="486" d="M360 191 C360 256 328 279 303 292 C208 342 42 343 42 520 C42 641 120 715 244 715 C294 715 415 703 415 647 C415 627 400 609 375 609 C344 609 318 637 250 637 C186 637 125 612 125 525 C125 459 160 437 183 425 C279 375 444 373 444 198 C444 66 351 -10 225 -10 C161 -10 41 10 41 64 C41 84 57 103 77 103 C105 103 148 68 226 68 C315 68 360 113 360 191 L360 191 Z M218 824 L296 905 C310 918 315 928 333 928 C347 928 364 914 364 895 C364 890 363 883 359 878 L278 792 C266 781 259 774 246 774 C228 774 213 788 213 809 C213 814 214 819 218 824 L218 824 Z " />
<glyph glyph-name="sacute" unicode="&#x15b;" horiz-adv-x="406" d="M53 370 C53 456 109 514 215 514 C267 514 348 500 348 458 C348 439 333 422 312 422 C305 422 300 424 294 427 C273 437 254 445 218 445 C157 445 129 421 129 375 C129 344 142 328 176 311 C245 277 362 268 362 138 C362 48 305 -8 194 -8 C143 -8 47 4 47 50 C47 67 60 86 84 86 C90 86 91 85 94 84 C122 73 154 61 194 61 C249 61 286 83 286 135 C286 171 269 186 249 197 C186 231 53 238 53 370 L53 370 Z M176 624 L254 705 C268 718 273 728 291 728 C305 728 322 714 322 695 C322 690 321 683 317 678 L236 592 C224 581 217 574 204 574 C186 574 171 588 171 609 C171 614 172 619 176 624 L176 624 Z " />
<glyph glyph-name="Scircumflex" unicode="&#x15c;" horiz-adv-x="486" d="M360 191 C360 256 328 279 303 292 C208 342 42 343 42 520 C42 641 120 715 244 715 C294 715 415 703 415 647 C415 627 400 609 375 609 C344 609 318 637 250 637 C186 637 125 612 125 525 C125 459 160 437 183 425 C279 375 444 373 444 198 C444 66 351 -10 225 -10 C161 -10 41 10 41 64 C41 84 57 103 77 103 C105 103 148 68 226 68 C315 68 360 113 360 191 L360 191 Z M243 836 L168 775 C165 771 155 769 149 769 C136 769 124 782 124 795 C124 806 132 816 142 825 L221 892 C227 896 234 900 243 900 C252 900 259 896 265 892 L344 825 C354 816 362 806 362 795 C362 782 350 769 336 769 C331 769 321 771 318 775 L243 836 L243 836 Z " />
<glyph glyph-name="scircumflex" unicode="&#x15d;" horiz-adv-x="406" d="M53 370 C53 456 109 514 215 514 C267 514 348 500 348 458 C348 439 333 422 312 422 C305 422 300 424 294 427 C273 437 254 445 218 445 C157 445 129 421 129 375 C129 344 142 328 176 311 C245 277 362 268 362 138 C362 48 305 -8 194 -8 C143 -8 47 4 47 50 C47 67 60 86 84 86 C90 86 91 85 94 84 C122 73 154 61 194 61 C249 61 286 83 286 135 C286 171 269 186 249 197 C186 231 53 238 53 370 L53 370 Z M203 636 L128 575 C125 571 115 569 109 569 C96 569 84 582 84 595 C84 606 92 616 102 625 L181 692 C187 696 194 700 203 700 C212 700 219 696 225 692 L304 625 C314 616 322 606 322 595 C322 582 310 569 296 569 C291 569 281 571 278 575 L203 636 L203 636 Z " />
<glyph glyph-name="Scedilla" unicode="&#x15e;" horiz-adv-x="486" d="M359 -128 C359 -177 314 -224 220 -211 C189 -207 160 -187 172 -164 C181 -147 196 -156 225 -162 C272 -171 294 -143 294 -121 C294 -97 273 -87 234 -85 C203 -83 193 -77 197 -53 L204 -9 C138 -6 41 15 41 64 C41 84 57 103 77 103 C105 103 148 68 226 68 C315 68 360 113 360 191 C360 256 328 279 303 292 C208 342 42 343 42 520 C42 641 120 715 244 715 C294 715 415 703 415 647 C415 627 400 609 375 609 C344 609 318 637 250 637 C186 637 125 612 125 525 C125 459 160 437 183 425 C279 375 444 373 444 198 C444 76 365 2 254 -8 L249 -40 C331 -41 359 -76 359 -128 L359 -128 Z " />
<glyph glyph-name="scedilla" unicode="&#x15f;" horiz-adv-x="406" d="M320 -128 C320 -177 275 -224 181 -211 C150 -207 121 -187 133 -164 C142 -147 157 -156 186 -162 C233 -171 255 -143 255 -121 C255 -97 234 -87 195 -85 C164 -83 154 -77 158 -53 L166 -7 C114 -3 47 11 47 50 C47 67 60 86 84 86 C90 86 91 85 94 84 C122 73 154 61 194 61 C249 61 286 83 286 135 C286 171 269 186 249 197 C186 231 53 238 53 370 C53 456 109 514 215 514 C267 514 348 500 348 458 C348 439 333 422 312 422 C305 422 300 424 294 427 C273 437 254 445 218 445 C157 445 129 421 129 375 C129 344 142 328 176 311 C245 277 362 268 362 138 C362 54 312 0 215 -7 L210 -40 C292 -41 320 -76 320 -128 L320 -128 Z " />
<glyph glyph-name="Scaron" unicode="&#x160;" horiz-adv-x="486" d="M360 191 C360 256 328 279 303 292 C208 342 42 343 42 520 C42 641 120 715 244 715 C294 715 415 703 415 647 C415 627 400 609 375 609 C344 609 318 637 250 637 C186 637 125 612 125 525 C125 459 160 437 183 425 C279 375 444 373 444 198 C444 66 351 -10 225 -10 C161 -10 41 10 41 64 C41 84 57 103 77 103 C105 103 148 68 226 68 C315 68 360 113 360 191 L360 191 Z M243 762 C233 762 225 766 219 771 L131 844 C118 855 111 864 111 878 C111 895 126 907 142 907 C148 907 154 904 160 900 L243 833 L326 900 C332 904 338 907 344 907 C360 907 375 895 375 878 C375 864 368 855 355 844 L267 771 C261 766 253 762 243 762 L243 762 Z " />
<glyph glyph-name="scaron" unicode="&#x161;" horiz-adv-x="406" d="M53 370 C53 456 109 514 215 514 C267 514 348 500 348 458 C348 439 333 422 312 422 C305 422 300 424 294 427 C273 437 254 445 218 445 C157 445 129 421 129 375 C129 344 142 328 176 311 C245 277 362 268 362 138 C362 48 305 -8 194 -8 C143 -8 47 4 47 50 C47 67 60 86 84 86 C90 86 91 85 94 84 C122 73 154 61 194 61 C249 61 286 83 286 135 C286 171 269 186 249 197 C186 231 53 238 53 370 L53 370 Z M203 562 C193 562 185 566 179 571 L91 644 C78 655 71 664 71 678 C71 695 86 707 102 707 C108 707 114 704 120 700 L203 633 L286 700 C292 704 298 707 304 707 C320 707 335 695 335 678 C335 664 328 655 315 644 L227 571 C221 566 213 562 203 562 L203 562 Z " />
<glyph glyph-name="uni0162" unicode="&#x162;" horiz-adv-x="483" d="M378 -128 C378 -177 333 -224 239 -211 C208 -207 179 -187 191 -164 C200 -147 215 -156 244 -162 C291 -171 313 -143 313 -121 C313 -97 292 -87 253 -85 C222 -83 212 -77 216 -53 L224 -6 C210 0 201 14 201 30 L201 627 L65 627 C42 627 25 645 25 666 C25 683 43 705 65 705 L417 705 C438 705 458 688 458 666 C458 645 439 627 417 627 L281 627 L281 30 C281 23 279 17 276 12 L268 -40 C350 -41 378 -76 378 -128 L378 -128 Z " />
<glyph glyph-name="uni0163" unicode="&#x163;" horiz-adv-x="321" d="M302 -128 C302 -177 257 -224 163 -211 C132 -207 103 -187 115 -164 C124 -147 139 -156 168 -162 C215 -171 237 -143 237 -121 C237 -97 216 -87 177 -85 C146 -83 138 -77 140 -53 C142 -31 145 -8 151 13 C91 42 74 105 74 203 L74 621 C74 642 88 659 113 659 C138 659 152 642 152 621 L152 483 L256 483 C276 483 292 467 292 446 C292 425 276 409 256 409 L152 409 L152 210 C152 107 162 69 234 69 C240 69 247 70 253 70 C276 70 305 66 305 34 C305 0 276 -4 248 -4 C228 -4 211 -2 195 0 C191 -16 190 -29 192 -40 C274 -41 302 -76 302 -128 L302 -128 Z " />
<glyph glyph-name="Tcaron" unicode="&#x164;" horiz-adv-x="483" d="M201 30 L201 627 L65 627 C42 627 25 645 25 666 C25 683 43 705 65 705 L417 705 C438 705 458 688 458 666 C458 645 439 627 417 627 L281 627 L281 30 C281 9 263 -10 241 -10 C219 -10 201 9 201 30 L201 30 Z M241 762 C231 762 223 766 217 771 L129 844 C116 855 109 864 109 878 C109 895 124 907 140 907 C146 907 152 904 158 900 L241 833 L324 900 C330 904 336 907 342 907 C358 907 373 895 373 878 C373 864 366 855 353 844 L265 771 C259 766 251 762 241 762 L241 762 Z " />
<glyph glyph-name="tcaron" unicode="&#x165;" horiz-adv-x="431" d="M74 203 L74 621 C74 642 88 659 113 659 C138 659 152 642 152 621 L152 483 L256 483 C276 483 292 467 292 446 C292 425 276 409 256 409 L152 409 L152 210 C152 107 162 69 234 69 C240 69 247 70 253 70 C276 70 305 66 305 34 C305 0 276 -4 248 -4 C108 -4 74 65 74 203 L74 203 Z M414 672 C414 605 365 508 338 508 C328 508 319 512 319 525 C319 557 344 575 356 617 C328 620 307 643 307 672 C307 701 331 725 361 725 C390 725 414 701 414 672 L414 672 Z " />
<glyph glyph-name="Utilde" unicode="&#x168;" horiz-adv-x="572" d="M507 230 C507 91 425 -10 286 -10 C144 -10 65 92 65 230 L65 673 C65 697 83 715 106 715 C127 715 145 696 145 673 L145 230 C145 134 190 68 286 68 C382 68 426 136 426 230 L426 673 C426 695 443 715 465 715 C489 715 507 695 507 673 L507 230 L507 230 Z M424 850 C424 815 378 791 342 789 C299 789 272 818 242 821 C205 821 200 794 178 794 C163 794 150 805 148 821 C148 858 187 886 230 886 C272 886 298 857 330 854 C368 854 370 879 394 882 C410 882 424 868 424 850 L424 850 Z " />
<glyph glyph-name="utilde" unicode="&#x169;" horiz-adv-x="509" d="M352 123 L352 473 C352 494 365 511 391 511 C417 511 430 494 430 473 L430 123 C430 68 440 68 448 53 C450 49 455 42 455 33 C455 14 439 -2 418 -2 C399 -2 386 10 375 28 C331 3 280 -8 233 -8 C127 -8 74 68 74 181 L74 473 C74 494 88 511 113 511 C138 511 152 494 152 473 L152 181 C152 105 184 62 244 62 C283 62 321 74 354 95 C353 105 352 115 352 123 L352 123 Z M392 650 C392 615 346 591 310 589 C267 589 240 618 210 621 C173 621 168 594 146 594 C131 594 118 605 116 621 C116 658 155 686 198 686 C240 686 266 657 298 654 C336 654 338 679 362 682 C378 682 392 668 392 650 L392 650 Z " />
<glyph glyph-name="Umacron" unicode="&#x16a;" horiz-adv-x="572" d="M507 230 C507 91 425 -10 286 -10 C144 -10 65 92 65 230 L65 673 C65 697 83 715 106 715 C127 715 145 696 145 673 L145 230 C145 134 190 68 286 68 C382 68 426 136 426 230 L426 673 C426 695 443 715 465 715 C489 715 507 695 507 673 L507 230 L507 230 Z M447 837 C447 817 431 801 411 801 L162 801 C141 801 125 817 125 837 C125 857 141 874 162 874 L411 874 C431 874 447 857 447 837 L447 837 Z " />
<glyph glyph-name="umacron" unicode="&#x16b;" horiz-adv-x="509" d="M352 123 L352 473 C352 494 365 511 391 511 C417 511 430 494 430 473 L430 123 C430 68 440 68 448 53 C450 49 455 42 455 33 C455 14 439 -2 418 -2 C399 -2 386 10 375 28 C331 3 280 -8 233 -8 C127 -8 74 68 74 181 L74 473 C74 494 88 511 113 511 C138 511 152 494 152 473 L152 181 C152 105 184 62 244 62 C283 62 321 74 354 95 C353 105 352 115 352 123 L352 123 Z M415 637 C415 617 399 601 379 601 L130 601 C109 601 93 617 93 637 C93 657 109 674 130 674 L379 674 C399 674 415 657 415 637 L415 637 Z " />
<glyph glyph-name="Ubreve" unicode="&#x16c;" horiz-adv-x="572" d="M507 230 C507 91 425 -10 286 -10 C144 -10 65 92 65 230 L65 673 C65 697 83 715 106 715 C127 715 145 696 145 673 L145 230 C145 134 190 68 286 68 C382 68 426 136 426 230 L426 673 C426 695 443 715 465 715 C489 715 507 695 507 673 L507 230 L507 230 Z M286 833 C308 833 330 844 351 874 C358 885 370 890 381 890 C398 890 414 879 407 853 C394 799 331 772 286 772 C241 772 178 799 164 853 C158 879 174 890 191 890 C202 890 214 885 221 874 C242 844 263 833 286 833 L286 833 Z " />
<glyph glyph-name="ubreve" unicode="&#x16d;" horiz-adv-x="509" d="M352 123 L352 473 C352 494 365 511 391 511 C417 511 430 494 430 473 L430 123 C430 68 440 68 448 53 C450 49 455 42 455 33 C455 14 439 -2 418 -2 C399 -2 386 10 375 28 C331 3 280 -8 233 -8 C127 -8 74 68 74 181 L74 473 C74 494 88 511 113 511 C138 511 152 494 152 473 L152 181 C152 105 184 62 244 62 C283 62 321 74 354 95 C353 105 352 115 352 123 L352 123 Z M254 633 C276 633 298 644 319 674 C326 685 338 690 349 690 C366 690 382 679 375 653 C362 599 299 572 254 572 C209 572 146 599 132 653 C126 679 142 690 159 690 C170 690 182 685 189 674 C210 644 231 633 254 633 L254 633 Z " />
<glyph glyph-name="Uring" unicode="&#x16e;" horiz-adv-x="572" d="M507 230 C507 91 425 -10 286 -10 C144 -10 65 92 65 230 L65 673 C65 697 83 715 106 715 C127 715 145 696 145 673 L145 230 C145 134 190 68 286 68 C382 68 426 136 426 230 L426 673 C426 695 443 715 465 715 C489 715 507 695 507 673 L507 230 L507 230 Z M385 844 C385 789 341 745 286 745 C230 745 186 789 186 844 C186 899 230 943 286 943 C341 943 385 899 385 844 L385 844 Z M340 844 C340 874 316 899 286 899 C256 899 232 874 232 844 C232 814 256 790 286 790 C316 790 340 814 340 844 L340 844 Z " />
<glyph glyph-name="uring" unicode="&#x16f;" horiz-adv-x="509" d="M352 123 L352 473 C352 494 365 511 391 511 C417 511 430 494 430 473 L430 123 C430 68 440 68 448 53 C450 49 455 42 455 33 C455 14 439 -2 418 -2 C399 -2 386 10 375 28 C331 3 280 -8 233 -8 C127 -8 74 68 74 181 L74 473 C74 494 88 511 113 511 C138 511 152 494 152 473 L152 181 C152 105 184 62 244 62 C283 62 321 74 354 95 C353 105 352 115 352 123 L352 123 Z M354 644 C354 589 310 545 255 545 C199 545 155 589 155 644 C155 699 199 743 255 743 C310 743 354 699 354 644 L354 644 Z M309 644 C309 674 285 699 255 699 C225 699 201 674 201 644 C201 614 225 590 255 590 C285 590 309 614 309 644 L309 644 Z " />
<glyph glyph-name="Uhungarumlaut" unicode="&#x170;" horiz-adv-x="572" d="M507 230 C507 91 425 -10 286 -10 C144 -10 65 92 65 230 L65 673 C65 697 83 715 106 715 C127 715 145 696 145 673 L145 230 C145 134 190 68 286 68 C382 68 426 136 426 230 L426 673 C426 695 443 715 465 715 C489 715 507 695 507 673 L507 230 L507 230 Z M190 812 L253 906 C264 920 269 935 289 935 C306 935 322 918 322 900 C322 897 321 893 320 890 L255 791 C244 777 237 767 222 767 C203 767 188 781 188 800 C188 804 188 808 190 812 L190 812 Z M325 812 L388 906 C397 920 405 935 423 935 C438 935 458 919 458 902 C458 898 457 894 455 890 L390 791 C379 777 373 767 357 767 C338 767 323 781 323 800 C323 804 323 808 325 812 L325 812 Z " />
<glyph glyph-name="uhungarumlaut" unicode="&#x171;" horiz-adv-x="509" d="M352 123 L352 473 C352 494 365 511 391 511 C417 511 430 494 430 473 L430 123 C430 68 440 68 448 53 C450 49 455 42 455 33 C455 14 439 -2 418 -2 C399 -2 386 10 375 28 C331 3 280 -8 233 -8 C127 -8 74 68 74 181 L74 473 C74 494 88 511 113 511 C138 511 152 494 152 473 L152 181 C152 105 184 62 244 62 C283 62 321 74 354 95 C353 105 352 115 352 123 L352 123 Z M156 612 L219 706 C230 720 235 735 255 735 C272 735 288 718 288 700 C288 697 287 693 286 690 L221 591 C210 577 203 567 188 567 C169 567 154 581 154 600 C154 604 154 608 156 612 L156 612 Z M291 612 L354 706 C363 720 371 735 389 735 C404 735 424 719 424 702 C424 698 423 694 421 690 L356 591 C345 577 339 567 323 567 C304 567 289 581 289 600 C289 604 289 608 291 612 L291 612 Z " />
<glyph glyph-name="Uogonek" unicode="&#x172;" horiz-adv-x="572" d="M507 230 C507 127 462 46 384 10 C368 -20 347 -58 347 -89 C347 -114 361 -134 391 -134 C415 -134 422 -129 433 -129 C448 -129 460 -142 460 -156 C460 -190 414 -195 383 -195 C321 -195 280 -167 280 -105 C280 -73 292 -39 312 -9 C303 -10 295 -10 286 -10 C144 -10 65 92 65 230 L65 673 C65 697 83 715 106 715 C127 715 145 696 145 673 L145 230 C145 134 190 68 286 68 C382 68 426 136 426 230 L426 673 C426 695 443 715 465 715 C489 715 507 695 507 673 L507 230 L507 230 Z " />
<glyph glyph-name="uogonek" unicode="&#x173;" horiz-adv-x="509" d="M523 -156 C523 -190 477 -195 446 -195 C384 -195 343 -167 343 -105 C343 -67 362 -26 390 9 C384 14 379 20 375 27 C331 3 280 -8 233 -8 C127 -8 74 68 74 181 L74 473 C74 494 88 511 113 511 C138 511 152 494 152 473 L152 181 C152 105 184 62 244 62 C283 62 321 74 354 94 C352 104 352 114 352 123 L352 473 C352 494 365 511 391 511 C417 511 430 494 430 473 L430 123 C430 68 440 68 448 53 C450 49 455 42 455 33 C455 23 450 16 444 8 C425 -18 410 -58 410 -89 C410 -114 424 -134 454 -134 C478 -134 485 -129 496 -129 C511 -129 523 -142 523 -156 L523 -156 Z " />
<glyph glyph-name="Wcircumflex" unicode="&#x174;" horiz-adv-x="776" d="M503 47 L388 550 L272 46 C265 20 252 -10 219 -10 C190 -10 172 16 165 46 L16 665 C15 665 15 676 15 676 C15 698 39 711 60 711 C76 711 91 702 96 682 L220 149 L336 657 C345 694 354 715 388 715 C420 715 431 692 439 657 L555 149 L679 682 C685 700 697 711 713 711 C734 711 761 700 761 675 C761 673 760 669 759 664 L610 46 C603 17 587 -10 557 -10 C527 -10 510 18 503 47 L503 47 Z M388 836 L313 775 C310 771 300 769 294 769 C281 769 269 782 269 795 C269 806 277 816 287 825 L366 892 C372 896 379 900 388 900 C397 900 404 896 410 892 L489 825 C499 816 507 806 507 795 C507 782 495 769 481 769 C476 769 466 771 463 775 L388 836 L388 836 Z " />
<glyph glyph-name="wcircumflex" unicode="&#x175;" horiz-adv-x="655" d="M629 465 L514 37 C505 7 493 -8 464 -8 C443 -8 424 4 418 26 L328 377 L239 26 C232 2 217 -8 192 -8 C165 -8 150 9 142 37 L26 468 C25 470 25 472 25 474 C25 493 42 511 64 511 C80 511 95 501 100 483 L194 115 C225 236 254 354 284 476 C289 496 305 511 329 511 C352 511 367 496 372 476 C401 354 432 236 463 115 L556 483 C560 499 575 511 592 511 C612 511 630 494 630 472 C630 470 629 467 629 465 L629 465 Z M327 636 L252 575 C249 571 239 569 233 569 C220 569 208 582 208 595 C208 606 216 616 226 625 L305 692 C311 696 318 700 327 700 C336 700 343 696 349 692 L428 625 C438 616 446 606 446 595 C446 582 434 569 420 569 C415 569 405 571 402 575 L327 636 L327 636 Z " />
<glyph glyph-name="Ycircumflex" unicode="&#x176;" horiz-adv-x="476" d="M238 -10 C215 -10 197 9 197 32 L197 277 L19 655 C17 660 15 668 15 674 C15 696 35 715 56 715 C68 715 81 710 87 699 L238 370 L389 699 C395 710 408 715 420 715 C441 715 461 696 461 674 C461 668 459 660 457 655 L279 275 L279 32 C279 10 261 -10 238 -10 L238 -10 Z M238 836 L163 775 C160 771 150 769 144 769 C131 769 119 782 119 795 C119 806 127 816 137 825 L216 892 C222 896 229 900 238 900 C247 900 254 896 260 892 L339 825 C349 816 357 806 357 795 C357 782 345 769 331 769 C326 769 316 771 313 775 L238 836 L238 836 Z " />
<glyph glyph-name="ycircumflex" unicode="&#x177;" horiz-adv-x="411" d="M396 460 L274 63 C226 -93 188 -200 58 -203 C35 -203 18 -187 18 -165 C18 -147 32 -129 55 -128 C118 -125 146 -91 176 2 L17 461 C15 464 15 471 15 475 C15 496 32 511 54 511 C69 511 83 502 89 485 L214 106 L323 485 C329 502 344 511 359 511 C379 511 398 495 398 472 C398 468 397 464 396 460 L396 460 Z M180 636 L105 575 C102 571 92 569 86 569 C73 569 61 582 61 595 C61 606 69 616 79 625 L158 692 C164 696 171 700 180 700 C189 700 196 696 202 692 L281 625 C291 616 299 606 299 595 C299 582 287 569 273 569 C268 569 258 571 255 575 L180 636 L180 636 Z " />
<glyph glyph-name="Ydieresis" unicode="&#x178;" horiz-adv-x="476" d="M238 -10 C215 -10 197 9 197 32 L197 277 L19 655 C17 660 15 668 15 674 C15 696 35 715 56 715 C68 715 81 710 87 699 L238 370 L389 699 C395 710 408 715 420 715 C441 715 461 696 461 674 C461 668 459 660 457 655 L279 275 L279 32 C279 10 261 -10 238 -10 L238 -10 Z M369 839 C369 812 348 790 322 790 C296 790 274 813 274 839 C274 864 296 886 322 886 C348 886 369 865 369 839 L369 839 Z M200 839 C200 812 179 790 152 790 C126 790 106 813 106 839 C106 864 126 886 152 886 C179 886 200 865 200 839 L200 839 Z " />
<glyph glyph-name="Zacute" unicode="&#x179;" horiz-adv-x="484" d="M454 41 C454 18 436 0 414 0 L71 0 C47 0 29 20 29 44 C29 53 35 69 39 76 L347 625 L70 625 C48 625 31 642 31 665 C31 686 48 705 70 705 L409 705 C434 705 452 686 452 662 C452 650 447 640 442 631 L132 80 L414 80 C435 80 454 63 454 41 L454 41 Z M211 824 L289 905 C303 918 308 928 326 928 C340 928 357 914 357 895 C357 890 356 883 352 878 L271 792 C259 781 252 774 239 774 C221 774 206 788 206 809 C206 814 207 819 211 824 L211 824 Z " />
<glyph glyph-name="zacute" unicode="&#x17a;" horiz-adv-x="384" d="M367 465 C367 456 364 446 358 437 L111 72 L332 72 C353 72 369 56 369 36 C369 16 353 0 332 0 L55 0 C34 0 15 18 15 42 C15 50 17 59 22 67 L270 433 L61 433 C41 433 25 449 25 469 C25 490 41 505 61 505 L326 505 C348 505 367 490 367 465 L367 465 Z M172 624 L250 705 C264 718 269 728 287 728 C301 728 318 714 318 695 C318 690 317 683 313 678 L232 592 C220 581 213 574 200 574 C182 574 167 588 167 609 C167 614 168 619 172 624 L172 624 Z " />
<glyph glyph-name="Zdotaccent" unicode="&#x17b;" horiz-adv-x="484" d="M454 41 C454 18 436 0 414 0 L71 0 C47 0 29 20 29 44 C29 53 35 69 39 76 L347 625 L70 625 C48 625 31 642 31 665 C31 686 48 705 70 705 L409 705 C434 705 452 686 452 662 C452 650 447 640 442 631 L132 80 L414 80 C435 80 454 63 454 41 L454 41 Z M289 839 C289 812 268 790 241 790 C215 790 195 813 195 839 C195 864 215 886 241 886 C268 886 289 865 289 839 L289 839 Z " />
<glyph glyph-name="zdotaccent" unicode="&#x17c;" horiz-adv-x="384" d="M367 465 C367 456 364 446 358 437 L111 72 L332 72 C353 72 369 56 369 36 C369 16 353 0 332 0 L55 0 C34 0 15 18 15 42 C15 50 17 59 22 67 L270 433 L61 433 C41 433 25 449 25 469 C25 490 41 505 61 505 L326 505 C348 505 367 490 367 465 L367 465 Z M239 639 C239 612 218 590 191 590 C165 590 145 613 145 639 C145 664 165 686 191 686 C218 686 239 665 239 639 L239 639 Z " />
<glyph glyph-name="Zcaron" unicode="&#x17d;" horiz-adv-x="484" d="M454 41 C454 18 436 0 414 0 L71 0 C47 0 29 20 29 44 C29 53 35 69 39 76 L347 625 L70 625 C48 625 31 642 31 665 C31 686 48 705 70 705 L409 705 C434 705 452 686 452 662 C452 650 447 640 442 631 L132 80 L414 80 C435 80 454 63 454 41 L454 41 Z M242 762 C232 762 224 766 218 771 L130 844 C117 855 110 864 110 878 C110 895 125 907 141 907 C147 907 153 904 159 900 L242 833 L325 900 C331 904 337 907 343 907 C359 907 374 895 374 878 C374 864 367 855 354 844 L266 771 C260 766 252 762 242 762 L242 762 Z " />
<glyph glyph-name="zcaron" unicode="&#x17e;" horiz-adv-x="384" d="M367 465 C367 456 364 446 358 437 L111 72 L332 72 C353 72 369 56 369 36 C369 16 353 0 332 0 L55 0 C34 0 15 18 15 42 C15 50 17 59 22 67 L270 433 L61 433 C41 433 25 449 25 469 C25 490 41 505 61 505 L326 505 C348 505 367 490 367 465 L367 465 Z M193 562 C183 562 175 566 169 571 L81 644 C68 655 61 664 61 678 C61 695 76 707 92 707 C98 707 104 704 110 700 L193 633 L276 700 C282 704 288 707 294 707 C310 707 325 695 325 678 C325 664 318 655 305 644 L217 571 C211 566 203 562 193 562 L193 562 Z " />
<glyph glyph-name="florin" unicode="&#x192;" horiz-adv-x="492" d="M478 672 C478 637 452 640 436 642 C428 643 416 644 409 644 C374 644 345 620 338 580 L316 449 L400 449 C418 449 434 439 434 414 C434 389 418 380 400 380 L303 380 L229 -42 C211 -142 177 -210 84 -210 C38 -210 3 -209 3 -174 C3 -151 19 -137 42 -137 C48 -137 61 -138 71 -138 C122 -138 139 -109 150 -48 L225 380 L141 380 C123 380 107 390 107 415 C107 440 123 449 141 449 L237 449 L262 592 C275 667 331 715 419 715 C447 715 478 710 478 672 L478 672 Z " />
<glyph glyph-name="uni0218" unicode="&#x218;" horiz-adv-x="486" d="M360 191 C360 256 328 279 303 292 C208 342 42 343 42 520 C42 641 120 715 244 715 C294 715 415 703 415 647 C415 627 400 609 375 609 C344 609 318 637 250 637 C186 637 125 612 125 525 C125 459 160 437 183 425 C279 375 444 373 444 198 C444 66 351 -10 225 -10 C161 -10 41 10 41 64 C41 84 57 103 77 103 C105 103 148 68 226 68 C315 68 360 113 360 191 L360 191 Z M297 -104 C297 -159 248 -238 221 -238 C211 -238 202 -233 202 -221 C202 -199 227 -187 239 -159 C211 -157 190 -133 190 -104 C190 -74 214 -51 244 -51 C273 -51 297 -75 297 -104 L297 -104 Z " />
<glyph glyph-name="uni0219" unicode="&#x219;" horiz-adv-x="406" d="M53 370 C53 456 109 514 215 514 C267 514 348 500 348 458 C348 439 333 422 312 422 C305 422 300 424 294 427 C273 437 254 445 218 445 C157 445 129 421 129 375 C129 344 142 328 176 311 C245 277 362 268 362 138 C362 48 305 -8 194 -8 C143 -8 47 4 47 50 C47 67 60 86 84 86 C90 86 91 85 94 84 C122 73 154 61 194 61 C249 61 286 83 286 135 C286 171 269 186 249 197 C186 231 53 238 53 370 L53 370 Z M257 -104 C257 -159 208 -238 181 -238 C171 -238 162 -233 162 -221 C162 -199 187 -187 199 -159 C171 -157 150 -133 150 -104 C150 -74 174 -51 204 -51 C233 -51 257 -75 257 -104 L257 -104 Z " />
<glyph glyph-name="uni021A" unicode="&#x21a;" horiz-adv-x="483" d="M201 30 L201 627 L65 627 C42 627 25 645 25 666 C25 683 43 705 65 705 L417 705 C438 705 458 688 458 666 C458 645 439 627 417 627 L281 627 L281 30 C281 9 263 -10 241 -10 C219 -10 201 9 201 30 L201 30 Z M295 -104 C295 -159 246 -238 219 -238 C209 -238 200 -233 200 -221 C200 -199 225 -187 237 -159 C209 -157 188 -133 188 -104 C188 -74 212 -51 242 -51 C271 -51 295 -75 295 -104 L295 -104 Z " />
<glyph glyph-name="uni021B" unicode="&#x21b;" horiz-adv-x="321" d="M74 203 L74 621 C74 642 88 659 113 659 C138 659 152 642 152 621 L152 483 L256 483 C276 483 292 467 292 446 C292 425 276 409 256 409 L152 409 L152 210 C152 107 162 69 234 69 C240 69 247 70 253 70 C276 70 305 66 305 34 C305 0 276 -4 248 -4 C108 -4 74 65 74 203 L74 203 Z M274 -104 C274 -159 225 -238 198 -238 C188 -238 179 -233 179 -221 C179 -199 204 -187 216 -159 C188 -157 167 -133 167 -104 C167 -74 191 -51 221 -51 C250 -51 274 -75 274 -104 L274 -104 Z " />
<glyph glyph-name="dotlessj" unicode="&#x237;" horiz-adv-x="245" d="M161 472 L161 -15 C161 -120 110 -189 20 -202 C12 -203 7 -203 1 -203 C-15 -203 -28 -193 -32 -177 C-39 -150 -17 -137 -2 -134 C52 -122 83 -92 83 -19 L83 472 C83 493 100 511 122 511 C144 511 161 493 161 472 L161 472 Z " />
<glyph glyph-name="circumflex" unicode="&#x2c6;" horiz-adv-x="396" d="M197 636 L122 575 C119 571 109 569 103 569 C90 569 78 582 78 595 C78 606 86 616 96 625 L175 692 C181 696 188 700 197 700 C206 700 213 696 219 692 L298 625 C308 616 316 606 316 595 C316 582 304 569 290 569 C285 569 275 571 272 575 L197 636 L197 636 Z " />
<glyph glyph-name="caron" unicode="&#x2c7;" horiz-adv-x="391" d="M195 562 C185 562 177 566 171 571 L83 644 C70 655 63 664 63 678 C63 695 78 707 94 707 C100 707 106 704 112 700 L195 633 L278 700 C284 704 290 707 296 707 C312 707 327 695 327 678 C327 664 320 655 307 644 L219 571 C213 566 205 562 195 562 L195 562 Z " />
<glyph glyph-name="breve" unicode="&#x2d8;" horiz-adv-x="368" d="M183 633 C205 633 227 644 248 674 C255 685 267 690 278 690 C295 690 311 679 304 653 C291 599 228 572 183 572 C138 572 75 599 61 653 C55 679 71 690 88 690 C99 690 111 685 118 674 C139 644 160 633 183 633 L183 633 Z " />
<glyph glyph-name="dotaccent" unicode="&#x2d9;" horiz-adv-x="238" d="M166 639 C166 612 145 590 118 590 C92 590 72 613 72 639 C72 664 92 686 118 686 C145 686 166 665 166 639 L166 639 Z " />
<glyph glyph-name="ring" unicode="&#x2da;" horiz-adv-x="571" d="M381 644 C381 589 337 545 282 545 C226 545 182 589 182 644 C182 699 226 743 282 743 C337 743 381 699 381 644 L381 644 Z M336 644 C336 674 312 699 282 699 C252 699 228 674 228 644 C228 614 252 590 282 590 C312 590 336 614 336 644 L336 644 Z " />
<glyph glyph-name="ogonek" unicode="&#x2db;" horiz-adv-x="322" d="M249 -156 C249 -190 203 -195 172 -195 C110 -195 69 -167 69 -105 C69 -70 84 -32 107 0 L167 0 C154 -27 136 -61 136 -89 C136 -114 150 -134 180 -134 C204 -134 211 -129 222 -129 C237 -129 249 -142 249 -156 L249 -156 Z " />
<glyph glyph-name="tilde" unicode="&#x2dc;" horiz-adv-x="375" d="M333 650 C333 615 287 591 251 589 C208 589 181 618 151 621 C114 621 109 594 87 594 C72 594 59 605 57 621 C57 658 96 686 139 686 C181 686 207 657 239 654 C277 654 279 679 303 682 C319 682 333 668 333 650 L333 650 Z " />
<glyph glyph-name="hungarumlaut" unicode="&#x2dd;" horiz-adv-x="410" d="M73 612 L136 706 C147 720 152 735 172 735 C189 735 205 718 205 700 C205 697 204 693 203 690 L138 591 C127 577 120 567 105 567 C86 567 71 581 71 600 C71 604 71 608 73 612 L73 612 Z M208 612 L271 706 C280 720 288 735 306 735 C321 735 341 719 341 702 C341 698 340 694 338 690 L273 591 C262 577 256 567 240 567 C221 567 206 581 206 600 C206 604 206 608 208 612 L208 612 Z " />
<glyph glyph-name="uni0400" unicode="&#x400;" horiz-adv-x="474" d="M441 41 C441 18 423 0 401 0 L136 0 C103 0 73 11 73 47 L73 658 C73 681 93 705 120 705 L391 705 C413 705 431 687 431 665 C431 643 413 627 391 627 L153 627 L153 393 L372 393 C392 393 411 376 411 354 C411 332 394 315 372 315 L153 315 L153 78 L401 78 C422 78 441 61 441 41 L441 41 Z M229 906 L307 825 C311 820 312 815 312 810 C312 789 296 775 279 775 C266 775 258 782 247 793 L166 879 C162 884 161 891 161 896 C161 915 178 929 192 929 C210 929 215 919 229 906 L229 906 Z " />
<glyph glyph-name="uni0401" unicode="&#x401;" horiz-adv-x="474" d="M441 41 C441 18 423 0 401 0 L136 0 C103 0 73 11 73 47 L73 658 C73 681 93 705 120 705 L391 705 C413 705 431 687 431 665 C431 643 413 627 391 627 L153 627 L153 393 L372 393 C392 393 411 376 411 354 C411 332 394 315 372 315 L153 315 L153 78 L401 78 C422 78 441 61 441 41 L441 41 Z M399 840 C399 813 378 791 352 791 C326 791 304 814 304 840 C304 865 326 887 352 887 C378 887 399 866 399 840 L399 840 Z M230 840 C230 813 209 791 182 791 C156 791 136 814 136 840 C136 865 156 887 182 887 C209 887 230 866 230 840 L230 840 Z " />
<glyph glyph-name="uni0402" unicode="&#x402;" horiz-adv-x="644" d="M161 30 L161 628 L65 628 C42 628 25 647 25 666 C25 685 43 706 65 706 L417 706 C438 706 458 689 458 667 C458 646 439 628 417 628 L241 628 L241 419 C281 437 329 445 371 445 C504 445 581 369 581 219 C581 79 514 -10 406 -10 C347 -10 304 17 304 50 C304 70 320 85 339 85 C360 85 359 68 398 68 C463 68 501 114 501 217 C501 327 458 367 365 367 C321 367 275 358 241 339 L241 30 C241 9 223 -10 201 -10 C179 -10 161 9 161 30 L161 30 Z " />
<glyph glyph-name="uni0403" unicode="&#x403;" horiz-adv-x="430" d="M153 628 L153 31 C153 10 135 -9 113 -9 C91 -9 73 10 73 31 L73 661 C73 683 92 706 118 706 L390 706 C412 706 429 688 429 667 C429 645 412 628 390 628 L153 628 L153 628 Z M223 825 L301 906 C315 919 320 929 338 929 C352 929 369 915 369 896 C369 891 368 884 364 879 L283 793 C271 782 264 775 251 775 C233 775 218 789 218 810 C218 815 219 820 223 825 L223 825 Z " />
<glyph glyph-name="uni0404" unicode="&#x404;" horiz-adv-x="482" d="M45 246 L45 460 C45 614 116 715 270 715 C361 715 447 676 447 629 C447 610 432 594 411 594 C397 594 391 601 375 611 C345 632 314 642 275 642 C162 642 125 572 125 460 L125 393 L311 393 C331 393 349 376 349 354 C349 332 333 314 311 314 L125 314 L125 246 C125 134 162 64 275 64 C314 64 345 74 375 95 C392 105 397 112 411 112 C432 112 447 96 447 77 C447 30 361 -9 270 -9 C116 -9 45 92 45 246 L45 246 Z " />
<glyph glyph-name="uni0405" unicode="&#x405;" horiz-adv-x="486" d="M360 191 C360 256 328 279 303 292 C208 342 42 343 42 520 C42 641 120 715 244 715 C294 715 415 703 415 647 C415 627 400 609 375 609 C344 609 318 637 250 637 C186 637 125 612 125 525 C125 459 160 437 183 425 C279 375 444 373 444 198 C444 66 351 -10 225 -10 C161 -10 41 10 41 64 C41 84 57 103 77 103 C105 103 148 68 226 68 C315 68 360 113 360 191 L360 191 Z " />
<glyph glyph-name="uni0406" unicode="&#x406;" horiz-adv-x="227" d="M73 30 L73 675 C73 696 91 715 113 715 C135 715 153 696 153 675 L153 30 C153 9 135 -10 113 -10 C91 -10 73 9 73 30 L73 30 Z " />
<glyph glyph-name="uni0407" unicode="&#x407;" horiz-adv-x="227" d="M73 30 L73 675 C73 696 91 715 113 715 C135 715 153 696 153 675 L153 30 C153 9 135 -10 113 -10 C91 -10 73 9 73 30 L73 30 Z M245 840 C245 813 224 791 198 791 C172 791 150 814 150 840 C150 865 172 887 198 887 C224 887 245 866 245 840 L245 840 Z M76 840 C76 813 55 791 28 791 C2 791 -18 814 -18 840 C-18 865 2 887 28 887 C55 887 76 866 76 840 L76 840 Z " />
<glyph glyph-name="uni0408" unicode="&#x408;" horiz-adv-x="385" d="M312 675 L312 225 C312 79 265 -10 110 -10 C82 -10 25 -7 25 35 C25 60 45 74 60 74 C71 74 90 67 121 67 C213 67 232 128 232 225 L232 675 C232 697 249 715 272 715 C293 715 312 696 312 675 L312 675 Z " />
<glyph glyph-name="uni0409" unicode="&#x409;" horiz-adv-x="877" d="M435 573 L436 573 L436 628 L242 628 L211 169 C204 62 168 -8 86 -8 C47 -8 10 -7 10 32 C10 61 28 73 47 73 C60 73 60 70 75 70 C111 70 127 100 132 163 L168 667 C171 696 191 706 206 706 L476 706 C497 706 516 688 516 667 L516 446 L610 446 C747 446 835 367 835 225 C835 108 776 0 610 0 L483 0 C457 0 435 22 435 48 L435 573 L435 573 Z M516 131 L515 131 L515 78 L610 78 C728 78 755 152 755 224 C755 322 705 368 610 368 L516 368 L516 131 L516 131 Z " />
<glyph glyph-name="uni040A" unicode="&#x40a;" horiz-adv-x="848" d="M153 31 C153 9 135 -10 113 -10 C91 -10 73 9 73 31 L73 675 C73 696 91 715 113 715 C135 715 153 696 153 675 L153 392 L406 392 L406 673 C406 696 425 715 446 715 C468 715 486 695 486 673 L486 446 L581 446 C718 446 806 367 806 225 C806 108 747 0 581 0 L454 0 C428 0 406 22 406 48 L406 314 L153 314 L153 31 L153 31 Z M486 78 L581 78 C699 78 726 152 726 224 C726 322 676 368 581 368 L486 368 L486 78 L486 78 Z " />
<glyph glyph-name="uni040B" unicode="&#x40b;" horiz-adv-x="644" d="M458 667 C458 646 439 628 417 628 L241 628 L241 419 C281 437 329 445 371 445 C504 445 581 366 581 224 L581 32 C581 10 563 -10 541 -10 C520 -10 501 9 501 32 L501 223 C501 327 456 367 364 367 C321 367 275 358 241 339 L241 30 C241 9 223 -10 201 -10 C179 -10 161 9 161 30 L161 628 L65 628 C42 628 25 646 25 667 C25 684 43 706 65 706 L417 706 C438 706 458 689 458 667 L458 667 Z " />
<glyph glyph-name="uni040C" unicode="&#x40c;" horiz-adv-x="516" d="M153 675 L153 392 L211 392 L420 696 C429 709 440 715 453 715 C477 715 491 690 491 672 C491 666 490 660 486 653 L276 352 L486 52 C490 45 491 39 491 33 C491 15 477 -10 453 -10 C440 -10 429 -4 420 9 L210 314 L153 314 L153 31 C153 9 135 -10 113 -10 C91 -10 73 9 73 31 L73 675 C73 696 91 715 113 715 C135 715 153 696 153 675 L153 675 Z M241 825 L319 906 C333 919 338 929 356 929 C370 929 387 915 387 896 C387 891 386 884 382 879 L301 793 C289 782 282 775 269 775 C251 775 236 789 236 810 C236 815 237 820 241 825 L241 825 Z " />
<glyph glyph-name="uni040D" unicode="&#x40d;" horiz-adv-x="589" d="M117 -10 C91 -10 73 10 73 34 L73 674 C73 696 90 715 112 715 C134 715 153 696 153 674 L153 164 L431 691 C439 706 456 715 473 715 C498 715 516 696 516 671 L516 31 C516 9 499 -10 477 -10 C455 -10 436 9 436 31 L436 541 L158 13 C150 -1 133 -10 117 -10 L117 -10 Z M238 906 L316 825 C320 820 321 815 321 810 C321 789 305 775 288 775 C275 775 267 782 256 793 L175 879 C171 884 170 891 170 896 C170 915 187 929 201 929 C219 929 224 919 238 906 L238 906 Z " />
<glyph glyph-name="uni040E" unicode="&#x40e;" horiz-adv-x="503" d="M476 664 L314 228 C266 90 228 -5 98 -8 C75 -8 58 8 58 30 C58 48 72 66 95 67 C158 70 186 95 216 167 L27 665 C25 668 25 675 25 679 C25 700 42 715 64 715 C79 715 93 706 99 689 L254 271 L403 689 C409 706 424 715 439 715 C459 715 478 699 478 676 C478 672 477 666 476 664 L476 664 Z M251 834 C273 834 295 845 316 875 C323 886 335 891 346 891 C363 891 379 880 372 854 C359 800 296 773 251 773 C206 773 143 800 129 854 C123 880 139 891 156 891 C167 891 179 886 186 875 C207 845 228 834 251 834 L251 834 Z " />
<glyph glyph-name="uni040F" unicode="&#x40f;" horiz-adv-x="579" d="M249 -120 L249 0 L113 0 C91 0 73 19 73 40 L73 675 C73 697 91 716 113 716 C135 716 153 697 153 675 L153 78 L426 78 L426 675 C426 697 445 716 466 716 C488 716 506 697 506 675 L506 40 C506 19 487 0 466 0 L329 0 L329 -120 C329 -141 311 -160 289 -160 C267 -160 249 -141 249 -120 L249 -120 Z " />
<glyph glyph-name="uni0410" unicode="&#x410;" horiz-adv-x="549" d="M105 20 C99 2 81 -10 67 -10 C44 -10 25 6 25 30 C25 34 26 42 27 45 L222 662 C231 692 245 715 274 715 C304 715 317 693 327 662 L522 45 C523 42 524 34 524 30 C524 6 506 -10 482 -10 C467 -10 448 2 443 20 L400 159 L147 159 L105 20 L105 20 Z M171 237 L377 237 L274 576 L171 237 L171 237 Z " />
<glyph glyph-name="uni0411" unicode="&#x411;" horiz-adv-x="531" d="M153 628 L153 426 L268 426 C405 426 493 351 493 215 C493 103 434 0 268 0 L121 0 C95 0 73 22 73 48 L73 661 C73 683 92 706 118 706 L410 706 C432 706 449 688 449 667 C449 645 432 628 410 628 L153 628 L153 628 Z M268 78 C386 78 413 147 413 214 C413 305 363 348 268 348 L153 348 L153 78 L268 78 L268 78 Z " />
<glyph glyph-name="uni0412" unicode="&#x412;" horiz-adv-x="542" d="M153 405 L268 405 C333 405 405 443 405 524 C405 577 375 627 285 627 L153 627 L153 405 L153 405 Z M271 327 L153 327 L153 78 L275 78 C375 78 424 127 424 199 C424 282 359 327 271 327 L271 327 Z M286 0 L121 0 C94 0 73 22 73 48 L73 657 C73 684 95 705 121 705 L290 705 C420 705 485 616 485 523 C485 437 430 394 356 363 C423 342 504 312 504 200 C504 87 421 0 286 0 L286 0 Z " />
<glyph glyph-name="uni0413" unicode="&#x413;" horiz-adv-x="430" d="M153 628 L153 31 C153 10 135 -9 113 -9 C91 -9 73 10 73 31 L73 661 C73 683 92 706 118 706 L390 706 C412 706 429 688 429 667 C429 645 412 628 390 628 L153 628 L153 628 Z " />
<glyph glyph-name="uni0414" unicode="&#x414;" horiz-adv-x="628" d="M495 706 C517 706 535 688 535 667 L535 78 L560 78 C583 78 601 56 601 27 L601 -101 C601 -123 583 -140 560 -140 C538 -140 521 -123 521 -101 L521 0 L105 0 L105 -101 C105 -123 88 -140 66 -140 C44 -140 27 -123 27 -101 L27 27 C27 56 44 78 66 78 L95 78 C128 123 146 217 152 343 L167 667 C169 696 190 706 205 706 L495 706 L495 706 Z M232 343 C227 230 208 138 173 78 L455 78 L455 628 L242 628 L232 343 L232 343 Z " />
<glyph glyph-name="uni0415" unicode="&#x415;" horiz-adv-x="474" d="M441 41 C441 18 423 0 401 0 L136 0 C103 0 73 11 73 47 L73 658 C73 681 93 705 120 705 L391 705 C413 705 431 687 431 665 C431 643 413 627 391 627 L153 627 L153 393 L372 393 C392 393 411 376 411 354 C411 332 394 315 372 315 L153 315 L153 78 L401 78 C422 78 441 61 441 41 L441 41 Z " />
<glyph glyph-name="uni0416" unicode="&#x416;" horiz-adv-x="746" d="M413 675 L413 392 L459 392 L650 696 C659 709 670 715 683 715 C707 715 721 690 721 672 C721 666 720 660 716 653 L531 352 L716 52 C720 45 721 39 721 33 C721 15 707 -10 683 -10 C670 -10 659 -4 650 9 L459 314 L413 314 L413 31 C413 9 395 -10 373 -10 C351 -10 333 9 333 31 L333 314 L287 314 L96 9 C87 -4 76 -10 63 -10 C39 -10 25 15 25 33 C25 39 26 45 30 52 L214 352 L30 653 C26 660 25 666 25 672 C25 690 39 715 63 715 C76 715 87 709 96 696 L286 392 L333 392 L333 675 C333 696 351 715 373 715 C395 715 413 696 413 675 L413 675 Z " />
<glyph glyph-name="uni0417" unicode="&#x417;" horiz-adv-x="485" d="M444 194 C444 85 361 -10 227 -10 C154 -10 30 18 30 74 C30 94 46 110 65 110 C72 110 76 108 85 103 C121 82 157 62 216 62 C316 62 365 120 365 193 C365 285 287 316 192 321 C170 322 143 324 143 359 C143 396 172 395 189 397 C266 404 350 435 350 526 C350 583 318 643 226 643 C194 643 161 636 135 623 C112 612 94 595 75 595 C58 595 41 609 41 629 C41 680 153 715 231 715 C361 715 426 618 426 525 C426 446 379 394 307 363 C387 336 444 284 444 194 L444 194 Z " />
<glyph glyph-name="uni0418" unicode="&#x418;" horiz-adv-x="589" d="M117 -10 C91 -10 73 10 73 34 L73 674 C73 696 90 715 112 715 C134 715 153 696 153 674 L153 164 L431 691 C439 706 456 715 473 715 C498 715 516 696 516 671 L516 31 C516 9 499 -10 477 -10 C455 -10 436 9 436 31 L436 541 L158 13 C150 -1 133 -10 117 -10 L117 -10 Z " />
<glyph glyph-name="uni0419" unicode="&#x419;" horiz-adv-x="589" d="M117 -10 C91 -10 73 10 73 34 L73 674 C73 696 90 715 112 715 C134 715 153 696 153 674 L153 164 L431 691 C439 706 456 715 473 715 C498 715 516 696 516 671 L516 31 C516 9 499 -10 477 -10 C455 -10 436 9 436 31 L436 541 L158 13 C150 -1 133 -10 117 -10 L117 -10 Z M294 834 C316 834 338 845 359 875 C366 886 378 891 389 891 C406 891 422 880 415 854 C402 800 339 773 294 773 C249 773 186 800 172 854 C166 880 182 891 199 891 C210 891 222 886 229 875 C250 845 271 834 294 834 L294 834 Z " />
<glyph glyph-name="uni041A" unicode="&#x41a;" horiz-adv-x="516" d="M153 675 L153 392 L211 392 L420 696 C429 709 440 715 453 715 C477 715 491 690 491 672 C491 666 490 660 486 653 L276 352 L486 52 C490 45 491 39 491 33 C491 15 477 -10 453 -10 C440 -10 429 -4 420 9 L210 314 L153 314 L153 31 C153 9 135 -10 113 -10 C91 -10 73 9 73 31 L73 675 C73 696 91 715 113 715 C135 715 153 696 153 675 L153 675 Z " />
<glyph glyph-name="uni041B" unicode="&#x41b;" horiz-adv-x="610" d="M536 31 C535 9 517 -8 496 -8 C473 -8 456 9 456 31 L456 628 L242 628 L211 169 C204 62 168 -8 86 -8 C47 -8 10 -7 10 32 C10 61 28 73 47 73 C60 73 60 70 75 70 C111 70 127 100 132 163 L168 667 C171 696 191 706 206 706 L496 706 C518 706 536 688 536 667 L536 31 L536 31 Z " />
<glyph glyph-name="uni041C" unicode="&#x41c;" horiz-adv-x="690" d="M624 673 L624 29 C624 8 606 -10 585 -10 C563 -10 544 8 544 29 L544 516 L383 172 C375 156 361 148 344 148 C328 148 314 156 306 172 L145 516 L145 29 C145 8 126 -10 103 -10 C82 -10 65 8 65 29 L65 673 C65 697 83 715 107 715 C127 715 141 706 150 689 L345 271 L540 690 C550 708 565 715 582 715 C606 715 624 696 624 673 L624 673 Z " />
<glyph glyph-name="uni041D" unicode="&#x41d;" horiz-adv-x="580" d="M506 31 C506 9 488 -10 466 -10 C445 -10 426 9 426 31 L426 314 L153 314 L153 31 C153 9 135 -10 113 -10 C91 -10 73 9 73 31 L73 675 C73 696 91 715 113 715 C135 715 153 696 153 675 L153 392 L426 392 L426 675 C426 696 445 715 466 715 C487 715 506 696 506 675 L506 31 L506 31 Z " />
<glyph glyph-name="uni041E" unicode="&#x41e;" horiz-adv-x="551" d="M275 -10 C122 -10 45 104 45 246 L45 460 C45 599 110 715 275 715 C440 715 505 599 505 460 L505 246 C505 104 428 -10 275 -10 L275 -10 Z M275 637 C165 637 125 566 125 460 L125 246 C125 141 172 68 275 68 C378 68 425 141 425 246 L425 460 C425 566 385 637 275 637 L275 637 Z " />
<glyph glyph-name="uni041F" unicode="&#x41f;" horiz-adv-x="579" d="M506 31 C506 9 488 -10 466 -10 C445 -10 426 9 426 31 L426 628 L153 628 L153 31 C153 9 135 -10 113 -10 C91 -10 73 9 73 31 L73 666 C73 687 91 706 113 706 L466 706 C487 706 506 687 506 666 L506 31 L506 31 Z " />
<glyph glyph-name="uni0420" unicode="&#x420;" horiz-adv-x="530" d="M268 260 L153 260 L153 32 C153 10 135 -10 113 -10 C92 -10 73 9 73 32 L73 657 C73 683 95 705 121 705 L268 705 C434 705 493 598 493 481 C493 339 405 260 268 260 L268 260 Z M153 627 L153 338 L268 338 C363 338 413 384 413 482 C413 554 386 627 268 627 L153 627 L153 627 Z " />
<glyph glyph-name="uni0421" unicode="&#x421;" horiz-adv-x="481" d="M45 246 L45 460 C45 614 116 715 270 715 C361 715 447 676 447 629 C447 610 432 594 411 594 C397 594 391 601 375 611 C345 632 314 642 275 642 C162 642 125 572 125 460 L125 246 C125 134 162 64 275 64 C314 64 345 74 375 95 C392 105 397 112 411 112 C432 112 447 96 447 77 C447 30 361 -9 270 -9 C116 -9 45 92 45 246 L45 246 Z " />
<glyph glyph-name="uni0422" unicode="&#x422;" horiz-adv-x="483" d="M201 30 L201 627 L65 627 C42 627 25 645 25 666 C25 683 43 705 65 705 L417 705 C438 705 458 688 458 666 C458 645 439 627 417 627 L281 627 L281 30 C281 9 263 -10 241 -10 C219 -10 201 9 201 30 L201 30 Z " />
<glyph glyph-name="uni0423" unicode="&#x423;" horiz-adv-x="503" d="M476 664 L314 228 C266 90 228 -5 98 -8 C75 -8 58 8 58 30 C58 48 72 66 95 67 C158 70 186 95 216 167 L27 665 C25 668 25 675 25 679 C25 700 42 715 64 715 C79 715 93 706 99 689 L254 271 L403 689 C409 706 424 715 439 715 C459 715 478 699 478 676 C478 672 477 666 476 664 L476 664 Z " />
<glyph glyph-name="uni0424" unicode="&#x424;" horiz-adv-x="750" d="M335 30 L335 160 L270 160 C133 160 45 239 45 381 C45 498 104 606 270 606 L335 606 L335 675 C335 696 355 715 375 715 C399 715 415 696 415 675 L415 606 L480 606 C646 606 705 498 705 381 C705 239 617 160 480 160 L415 160 L415 30 C415 9 397 -10 375 -10 C353 -10 335 9 335 30 L335 30 Z M480 528 L415 528 L415 238 L480 238 C575 238 625 284 625 382 C625 454 598 528 480 528 L480 528 Z M270 238 L335 238 L335 528 L270 528 C152 528 125 454 125 382 C125 284 175 238 270 238 L270 238 Z " />
<glyph glyph-name="uni0425" unicode="&#x425;" horiz-adv-x="483" d="M241 303 L82 19 C75 6 63 -10 44 -10 C24 -10 6 10 6 31 C6 39 9 48 12 53 L194 367 L27 654 C24 660 22 669 22 676 C22 696 39 715 59 715 C77 715 92 698 102 680 L241 431 L380 680 C389 695 404 715 424 715 C443 715 460 697 460 675 C460 668 458 660 455 654 L288 367 L470 53 C473 48 476 39 476 31 C476 10 458 -10 439 -10 C420 -10 408 5 400 19 L241 303 L241 303 Z " />
<glyph glyph-name="uni0426" unicode="&#x426;" horiz-adv-x="604" d="M113 0 C91 0 73 19 73 40 L73 674 C73 696 91 715 113 715 C135 715 153 696 153 674 L153 78 L426 78 L426 674 C426 696 445 715 466 715 C488 715 506 696 506 674 L506 78 L546 78 C567 78 586 59 586 38 L586 -119 C586 -141 567 -160 546 -160 C525 -160 506 -141 506 -119 L506 0 L469 0 L466 0 L113 0 L113 0 Z " />
<glyph glyph-name="uni0427" unicode="&#x427;" horiz-adv-x="547" d="M393 673 C393 695 411 715 433 715 C454 715 473 696 473 673 L473 32 C473 9 454 -10 433 -10 C411 -10 393 10 393 32 L393 286 C352 268 304 260 263 260 C130 260 53 339 53 481 L53 673 C53 695 71 715 93 715 C114 715 133 696 133 673 L133 482 C133 378 178 338 270 338 C312 338 359 347 393 365 L393 673 L393 673 Z " />
<glyph glyph-name="uni0428" unicode="&#x428;" horiz-adv-x="760" d="M686 674 L686 40 C686 19 667 0 646 0 L113 0 C91 0 73 19 73 40 L73 674 C73 696 91 715 113 715 C135 715 153 696 153 674 L153 78 L339 78 L339 675 C339 696 357 715 379 715 C401 715 419 696 419 675 L419 78 L606 78 L606 674 C606 696 625 715 646 715 C668 715 686 696 686 674 L686 674 Z " />
<glyph glyph-name="uni0429" unicode="&#x429;" horiz-adv-x="784" d="M686 674 L686 78 L726 78 C747 78 766 59 766 38 L766 -119 C766 -141 748 -160 726 -160 C705 -160 686 -141 686 -119 L686 0 L113 0 C91 0 73 19 73 40 L73 674 C73 696 91 715 113 715 C135 715 153 696 153 674 L153 78 L339 78 L339 675 C339 696 357 715 379 715 C401 715 419 696 419 675 L419 78 L606 78 L606 674 C606 696 625 715 646 715 C668 715 686 696 686 674 L686 674 Z " />
<glyph glyph-name="uni042A" unicode="&#x42a;" horiz-adv-x="654" d="M192 628 L55 628 C33 628 16 645 16 667 C16 688 33 706 55 706 L227 706 C253 706 272 683 272 661 L272 446 L387 446 C524 446 612 367 612 225 C612 108 553 0 387 0 L240 0 C214 0 192 22 192 48 L192 628 L192 628 Z M387 78 C505 78 532 152 532 224 C532 322 482 368 387 368 L272 368 L272 78 L387 78 L387 78 Z " />
<glyph glyph-name="uni042B" unicode="&#x42b;" horiz-adv-x="725" d="M268 446 C405 446 493 367 493 225 C493 108 434 0 268 0 L121 0 C95 0 73 22 73 48 L73 673 C73 696 92 715 113 715 C135 715 153 695 153 673 L153 446 L268 446 L268 446 Z M153 78 L268 78 C386 78 413 152 413 224 C413 322 363 368 268 368 L153 368 L153 78 L153 78 Z M571 30 L571 675 C571 696 589 715 611 715 C633 715 651 696 651 675 L651 30 C651 9 633 -10 611 -10 C589 -10 571 9 571 30 L571 30 Z " />
<glyph glyph-name="uni042C" unicode="&#x42c;" horiz-adv-x="535" d="M268 446 C405 446 493 367 493 225 C493 108 434 0 268 0 L121 0 C95 0 73 22 73 48 L73 673 C73 696 92 715 113 715 C135 715 153 695 153 673 L153 446 L268 446 L268 446 Z M153 78 L268 78 C386 78 413 152 413 224 C413 322 363 368 268 368 L153 368 L153 78 L153 78 Z " />
<glyph glyph-name="uni042D" unicode="&#x42d;" horiz-adv-x="498" d="M452 246 C452 92 381 -9 227 -9 C136 -9 50 30 50 77 C50 96 65 112 86 112 C100 112 105 105 122 95 C152 74 183 64 222 64 C335 64 372 134 372 246 L372 314 L186 314 C164 314 148 332 148 354 C148 376 166 393 186 393 L372 393 L372 460 C372 572 335 642 222 642 C183 642 152 632 122 611 C106 601 100 594 86 594 C65 594 50 610 50 629 C50 676 136 715 227 715 C381 715 452 614 452 460 L452 246 L452 246 Z " />
<glyph glyph-name="uni042E" unicode="&#x42e;" horiz-adv-x="758" d="M493 -10 C347 -10 273 100 273 236 L273 315 L153 315 L153 31 C153 9 135 -10 113 -10 C91 -10 73 9 73 31 L73 675 C73 696 91 715 113 715 C135 715 153 696 153 675 L153 392 L273 392 L273 470 C273 604 335 715 493 715 C651 715 713 604 713 470 L713 236 C713 100 639 -10 493 -10 L493 -10 Z M493 637 C390 637 353 570 353 470 L353 236 C353 137 397 68 493 68 C589 68 633 137 633 236 L633 470 C633 570 596 637 493 637 L493 637 Z " />
<glyph glyph-name="uni042F" unicode="&#x42f;" horiz-adv-x="561" d="M70 505 C70 604 123 706 288 706 L442 706 C467 706 488 684 488 658 L488 32 C488 9 471 -10 449 -10 C427 -10 408 10 408 32 L408 310 L312 310 L136 10 C129 -2 117 -9 103 -9 C87 -9 60 8 60 29 C60 37 62 46 65 52 L225 315 C129 334 70 399 70 505 L70 505 Z M150 505 C150 428 198 387 286 387 L408 387 L408 628 L292 628 C176 628 150 564 150 505 L150 505 Z " />
<glyph glyph-name="uni0430" unicode="&#x430;" horiz-adv-x="482" d="M322 338 C322 411 287 445 215 445 C180 445 161 436 139 424 C136 423 124 416 113 416 C94 416 86 434 85 449 C81 495 156 514 225 514 C350 514 400 444 400 312 L400 92 C400 72 406 62 418 62 C421 62 422 63 426 63 C445 63 455 46 455 29 C455 4 432 -5 410 -5 C377 -5 350 14 335 45 C297 10 252 -8 198 -8 C95 -8 45 53 45 143 L45 147 C45 245 103 295 221 295 C257 295 291 290 322 281 L322 338 L322 338 Z M220 229 C138 229 122 191 122 146 L122 142 C122 95 143 62 210 62 C253 62 287 76 322 106 L322 214 C289 224 250 229 220 229 L220 229 Z " />
<glyph glyph-name="uni0431" unicode="&#x431;" horiz-adv-x="465" d="M45 477 C45 604 104 679 243 693 C279 697 279 690 347 721 C349 722 354 724 361 724 C381 724 396 708 396 688 C396 637 295 628 244 624 C201 620 123 611 123 482 L123 431 C150 465 191 486 247 486 C355 486 419 408 419 308 L419 170 C419 70 354 -8 232 -8 C110 -8 45 70 45 170 L45 477 L45 477 Z M232 64 C304 64 341 104 341 170 L341 309 C341 374 309 414 237 414 C167 414 125 376 123 314 L123 170 C123 104 160 64 232 64 L232 64 Z " />
<glyph glyph-name="uni0432" unicode="&#x432;" horiz-adv-x="468" d="M412 364 C412 313 391 277 342 258 C398 238 422 198 422 142 C422 58 367 0 256 0 L112 0 C90 0 73 18 73 39 L73 466 C73 487 90 505 112 505 L246 505 C358 505 412 446 412 364 L412 364 Z M345 145 C345 183 329 223 243 223 L151 223 L151 67 L254 67 C314 67 345 91 345 145 L345 145 Z M151 438 L151 289 L246 289 C321 289 335 325 335 360 C335 414 303 438 244 438 L151 438 L151 438 Z " />
<glyph glyph-name="uni0433" unicode="&#x433;" horiz-adv-x="372" d="M151 435 L151 31 C151 9 134 -8 112 -8 C90 -8 73 9 73 31 L73 470 C73 490 89 505 109 505 L334 505 C353 505 370 490 370 470 C370 450 354 435 334 435 L151 435 L151 435 Z " />
<glyph glyph-name="uni0434" unicode="&#x434;" horiz-adv-x="538" d="M410 505 C432 505 449 487 449 466 L449 66 L476 66 C498 66 515 49 515 27 L515 -101 C515 -123 498 -140 476 -140 C454 -140 437 -123 437 -101 L437 0 L101 0 L101 -101 C101 -123 84 -140 62 -140 C40 -140 23 -123 23 -101 L23 27 C23 49 40 66 62 66 L81 66 C112 97 128 167 133 263 L142 466 C145 495 165 505 180 505 L410 505 L410 505 Z M206 263 C203 180 189 112 161 66 L371 66 L371 439 L213 439 L206 263 L206 263 Z " />
<glyph glyph-name="uni0435" unicode="&#x435;" horiz-adv-x="433" d="M232 61 C274 61 301 73 336 89 C338 90 343 92 350 92 C370 92 385 75 385 57 C385 8 277 -8 223 -8 C110 -8 45 64 45 158 L45 345 C45 441 109 514 228 514 C339 514 394 450 394 351 C394 259 344 203 225 203 C195 203 158 206 123 212 L123 153 C123 97 160 61 232 61 L232 61 Z M317 351 C317 416 284 443 226 443 C161 443 123 408 123 352 L123 276 C160 271 208 269 228 269 C304 269 317 310 317 351 L317 351 Z " />
<glyph glyph-name="uni0436" unicode="&#x436;" horiz-adv-x="608" d="M343 31 C343 9 326 -8 304 -8 C282 -8 265 9 265 31 L265 228 L228 228 L94 11 C85 -2 75 -8 62 -8 C41 -8 26 5 25 25 C25 32 27 42 31 48 L156 251 L31 454 C26 460 25 470 25 477 C26 497 42 510 62 510 C75 510 86 504 94 491 L215 294 L265 294 L265 472 C265 493 282 511 304 511 C326 511 343 493 343 472 L343 294 L392 294 L514 491 C521 504 533 510 546 510 C567 510 582 497 583 477 C583 470 581 460 577 454 L452 251 L577 48 C581 42 583 32 583 25 C582 5 566 -8 546 -8 C533 -8 522 -2 514 11 L380 228 L343 228 L343 31 L343 31 Z " />
<glyph glyph-name="uni0437" unicode="&#x437;" horiz-adv-x="408" d="M354 371 C354 312 327 271 259 258 C333 244 364 201 364 136 C364 49 308 -8 193 -8 C141 -8 39 4 39 51 C39 66 49 86 79 86 C86 86 85 85 87 84 C112 74 151 61 196 61 C255 61 288 83 288 141 C288 169 280 216 171 222 C149 223 122 225 122 256 C122 287 149 287 168 289 C267 297 278 348 278 376 C278 421 250 445 186 445 C148 445 124 436 103 427 C97 424 92 422 85 422 C64 422 49 439 49 457 C49 500 135 514 189 514 C299 514 354 455 354 371 L354 371 Z " />
<glyph glyph-name="uni0438" unicode="&#x438;" horiz-adv-x="530" d="M117 -10 C91 -10 73 10 73 34 L73 471 C73 493 89 512 111 512 C133 512 151 493 151 471 L151 134 L373 488 C381 503 397 512 414 512 C439 512 456 493 456 468 L456 31 C456 9 439 -10 417 -10 C395 -10 378 9 378 31 L378 368 L157 13 C148 -1 133 -10 117 -10 L117 -10 Z " />
<glyph glyph-name="uni0439" unicode="&#x439;" horiz-adv-x="530" d="M117 -10 C91 -10 73 10 73 34 L73 471 C73 493 89 512 111 512 C133 512 151 493 151 471 L151 134 L373 488 C381 503 397 512 414 512 C439 512 456 493 456 468 L456 31 C456 9 439 -10 417 -10 C395 -10 378 9 378 31 L378 368 L157 13 C148 -1 133 -10 117 -10 L117 -10 Z M265 633 C287 633 309 644 330 674 C337 685 349 690 360 690 C377 690 393 679 386 653 C373 599 310 572 265 572 C220 572 157 599 143 653 C137 679 153 690 170 690 C181 690 193 685 200 674 C221 644 242 633 265 633 L265 633 Z " />
<glyph glyph-name="uni043A" unicode="&#x43a;" horiz-adv-x="436" d="M151 31 C151 9 134 -8 112 -8 C90 -8 73 9 73 31 L73 472 C73 493 90 511 112 511 C134 511 151 493 151 472 L151 294 L212 294 L342 491 C350 504 361 510 374 510 C394 510 410 497 411 477 C411 470 409 460 405 454 L268 251 L405 48 C409 42 411 32 411 25 C410 5 394 -8 374 -8 C361 -8 350 -2 342 11 L199 228 L151 228 L151 31 L151 31 Z " />
<glyph glyph-name="uni043B" unicode="&#x43b;" horiz-adv-x="524" d="M451 31 C451 9 434 -8 412 -8 C390 -8 373 9 373 31 L373 439 L214 439 L192 163 C184 62 151 -5 72 -5 C41 -5 11 -4 11 30 C11 57 30 68 48 68 C54 68 54 67 61 67 C97 67 113 96 118 157 L144 466 C147 495 167 505 182 505 L412 505 C434 505 451 487 451 466 L451 31 L451 31 Z " />
<glyph glyph-name="uni043C" unicode="&#x43c;" horiz-adv-x="640" d="M320 83 L318 83 C302 83 288 92 280 107 L150 342 L150 31 C150 10 132 -8 111 -8 C90 -8 73 10 73 31 L73 469 C73 493 91 511 115 511 C134 511 146 501 155 485 L319 186 L483 485 C492 501 504 511 523 511 C547 511 565 493 565 469 L565 31 C565 10 547 -8 527 -8 C505 -8 488 10 488 31 L488 342 L358 107 C350 92 336 83 320 83 L320 83 Z " />
<glyph glyph-name="uni043D" unicode="&#x43d;" horiz-adv-x="514" d="M151 31 C151 9 134 -8 112 -8 C90 -8 73 9 73 31 L73 472 C73 493 90 511 112 511 C134 511 151 493 151 472 L151 294 L363 294 L363 472 C363 493 380 511 402 511 C424 511 441 493 441 472 L441 31 C441 9 424 -8 402 -8 C380 -8 363 9 363 31 L363 228 L151 228 L151 31 L151 31 Z " />
<glyph glyph-name="uni043E" unicode="&#x43e;" horiz-adv-x="465" d="M232 -8 C110 -8 45 70 45 170 L45 337 C45 437 110 515 232 515 C354 515 419 437 419 337 L419 170 C419 70 354 -8 232 -8 L232 -8 Z M232 64 C304 64 341 104 341 170 L341 338 C341 403 304 443 232 443 C160 443 123 403 123 338 L123 170 C123 104 160 64 232 64 L232 64 Z " />
<glyph glyph-name="uni043F" unicode="&#x43f;" horiz-adv-x="504" d="M151 31 C151 9 134 -8 112 -8 C90 -8 73 9 73 31 L73 466 C73 487 90 505 112 505 L392 505 C414 505 431 487 431 466 L431 31 C431 9 414 -8 392 -8 C370 -8 353 9 353 31 L353 439 L151 439 L151 31 L151 31 Z " />
<glyph glyph-name="uni0440" unicode="&#x440;" horiz-adv-x="478" d="M266 -7 C232 -7 191 0 155 12 L155 -177 C155 -198 141 -215 116 -215 C91 -215 77 -198 77 -177 L77 369 C77 402 73 421 61 439 C57 445 54 450 54 459 C54 480 72 494 89 494 C105 494 118 484 128 470 C173 494 222 514 274 514 C379 514 433 437 433 325 L433 195 C433 76 393 -7 266 -7 L266 -7 Z M155 369 L155 82 C187 67 231 61 256 61 C329 61 355 102 355 195 L355 325 C355 403 324 444 258 444 C224 444 184 431 150 410 C153 395 155 381 155 369 L155 369 Z " />
<glyph glyph-name="uni0441" unicode="&#x441;" horiz-adv-x="390" d="M45 176 L45 327 C45 430 99 511 224 511 C271 511 363 497 363 450 C363 432 348 416 329 416 C324 416 319 417 313 419 C289 431 267 442 232 442 C154 442 123 400 123 327 L123 176 C123 103 154 61 232 61 C267 61 289 72 313 84 C319 86 324 87 329 87 C348 87 363 71 363 53 C363 6 271 -8 224 -8 C99 -8 45 73 45 176 L45 176 Z " />
<glyph glyph-name="uni0442" unicode="&#x442;" horiz-adv-x="408" d="M243 431 L243 31 C243 9 226 -8 204 -8 C182 -8 165 9 165 31 L165 431 L61 431 C41 431 25 447 25 468 C25 489 41 505 61 505 L347 505 C367 505 383 489 383 468 C383 447 367 431 347 431 L243 431 L243 431 Z " />
<glyph glyph-name="uni0443" unicode="&#x443;" horiz-adv-x="412" d="M397 460 L275 63 C227 -93 189 -200 59 -203 C36 -203 19 -187 19 -165 C19 -147 33 -129 56 -128 C119 -125 147 -91 177 2 L18 461 C16 464 16 471 16 475 C16 496 33 511 55 511 C70 511 84 502 90 485 L215 106 L324 485 C330 502 345 511 360 511 C380 511 399 495 399 472 C399 468 398 464 397 460 L397 460 Z " />
<glyph glyph-name="uni0444" unicode="&#x444;" horiz-adv-x="585" d="M252 -176 L252 -8 C116 -8 45 90 45 220 L45 296 C45 420 116 514 252 514 L252 686 C252 707 269 725 291 725 C313 725 330 708 330 686 L330 514 L332 514 C468 514 539 420 539 296 L539 220 C539 90 468 -8 332 -8 L330 -8 L330 -176 C330 -198 313 -215 291 -215 C269 -215 252 -197 252 -176 L252 -176 Z M332 442 L330 442 L330 64 L332 64 C418 64 461 124 461 220 L461 297 C461 386 418 442 332 442 L332 442 Z M252 64 L252 442 C166 442 123 386 123 297 L123 220 C123 124 166 64 252 64 L252 64 Z " />
<glyph glyph-name="uni0445" unicode="&#x445;" horiz-adv-x="431" d="M261 258 L401 50 C405 44 406 38 406 33 C406 11 390 -8 366 -8 C348 -8 340 0 328 19 L215 193 L97 12 C88 -2 78 -8 65 -8 C43 -8 25 8 25 31 C25 37 26 42 30 48 L170 256 L39 454 C35 459 33 466 33 471 C33 492 50 511 72 511 C94 511 106 492 116 477 L217 322 L322 485 C332 501 341 511 359 511 C377 511 397 495 397 474 C397 468 396 461 392 455 L261 258 L261 258 Z " />
<glyph glyph-name="uni0446" unicode="&#x446;" horiz-adv-x="529" d="M441 472 L441 66 L468 66 C490 66 507 49 507 27 L507 -101 C507 -123 490 -140 468 -140 C446 -140 429 -123 429 -101 L429 0 L112 0 C90 0 73 18 73 39 L73 472 C73 494 90 511 112 511 C134 511 151 494 151 472 L151 66 L363 66 L363 472 C363 494 380 511 402 511 C424 511 441 494 441 472 L441 472 Z " />
<glyph glyph-name="uni0447" unicode="&#x447;" horiz-adv-x="468" d="M123 472 L123 331 C123 290 135 249 211 249 C231 249 277 255 316 263 L316 472 C316 493 333 511 355 511 C377 511 394 493 394 472 L394 31 C394 9 377 -8 355 -8 C333 -8 316 9 316 31 L316 197 C280 188 243 183 214 183 C95 183 45 239 45 331 L45 472 C45 493 62 511 84 511 C106 511 123 493 123 472 L123 472 Z " />
<glyph glyph-name="uni0448" unicode="&#x448;" horiz-adv-x="705" d="M631 472 L631 39 C631 18 614 0 592 0 L112 0 C90 0 73 18 73 39 L73 472 C73 494 90 511 112 511 C134 511 151 494 151 472 L151 66 L313 66 L313 472 C313 493 330 511 352 511 C374 511 391 493 391 472 L391 66 L553 66 L553 472 C553 494 570 511 592 511 C614 511 631 494 631 472 L631 472 Z " />
<glyph glyph-name="uni0449" unicode="&#x449;" horiz-adv-x="718" d="M631 472 L631 66 L658 66 C680 66 697 49 697 27 L697 -101 C697 -123 680 -140 658 -140 C636 -140 619 -123 619 -101 L619 0 L112 0 C90 0 73 18 73 39 L73 472 C73 494 90 511 112 511 C134 511 151 494 151 472 L151 66 L313 66 L313 472 C313 493 330 511 352 511 C374 511 391 493 391 472 L391 66 L553 66 L553 472 C553 494 570 511 592 511 C614 511 631 494 631 472 L631 472 Z " />
<glyph glyph-name="uni044A" unicode="&#x44a;" horiz-adv-x="528" d="M129 435 L46 435 C26 435 10 450 10 470 C10 490 27 505 46 505 L171 505 C191 505 207 490 207 470 L207 299 L309 299 C436 299 488 244 488 147 C488 60 433 0 322 0 L168 0 C146 0 129 18 129 39 L129 435 L129 435 Z M309 233 L207 233 L207 67 L320 67 C379 67 411 93 411 150 C411 190 395 233 309 233 L309 233 Z " />
<glyph glyph-name="uni044B" unicode="&#x44b;" horiz-adv-x="654" d="M151 472 L151 299 L253 299 C380 299 432 244 432 147 C432 60 377 0 266 0 L112 0 C90 0 73 18 73 39 L73 472 C73 493 90 511 112 511 C134 511 151 493 151 472 L151 472 Z M253 233 L151 233 L151 67 L264 67 C323 67 355 93 355 150 C355 190 339 233 253 233 L253 233 Z M580 31 C580 9 563 -8 541 -8 C519 -8 502 9 502 31 L502 472 C502 493 519 511 541 511 C563 511 580 493 580 472 L580 31 L580 31 Z " />
<glyph glyph-name="uni044C" unicode="&#x44c;" horiz-adv-x="472" d="M151 472 L151 299 L253 299 C380 299 432 244 432 147 C432 60 377 0 266 0 L112 0 C90 0 73 18 73 39 L73 472 C73 493 90 511 112 511 C134 511 151 493 151 472 L151 472 Z M253 233 L151 233 L151 67 L264 67 C323 67 355 93 355 150 C355 190 339 233 253 233 L253 233 Z " />
<glyph glyph-name="uni044D" unicode="&#x44d;" horiz-adv-x="393" d="M116 219 C96 219 80 234 80 254 C80 274 96 289 116 289 L269 289 L269 317 C269 396 241 442 170 442 C131 442 106 431 79 419 C73 417 68 416 63 416 C44 416 29 432 29 450 C29 497 128 511 178 511 C296 511 347 426 347 317 L347 186 C347 77 296 -8 178 -8 C128 -8 29 6 29 53 C29 71 44 87 63 87 C68 87 73 86 79 84 C106 72 131 61 170 61 C241 61 269 107 269 186 L269 219 L116 219 L116 219 Z " />
<glyph glyph-name="uni044E" unicode="&#x44e;" horiz-adv-x="681" d="M151 31 C151 9 134 -8 112 -8 C90 -8 73 9 73 31 L73 472 C73 493 90 511 112 511 C134 511 151 493 151 472 L151 294 L261 294 L261 336 C261 436 326 514 448 514 C570 514 635 436 635 336 L635 170 C635 70 570 -8 448 -8 C326 -8 261 70 261 170 L261 228 L151 228 L151 31 L151 31 Z M448 64 C520 64 557 104 557 170 L557 337 C557 402 520 442 448 442 C376 442 339 402 339 337 L339 170 C339 104 376 64 448 64 L448 64 Z " />
<glyph glyph-name="uni044F" unicode="&#x44f;" horiz-adv-x="487" d="M374 -8 C352 -8 335 10 335 31 L335 206 L247 206 L119 11 C110 -2 100 -8 87 -8 C66 -8 51 5 50 25 C50 32 52 42 56 48 L166 212 C87 229 54 280 54 358 C54 445 109 505 220 505 L374 505 C396 505 413 487 413 466 L413 31 C413 10 396 -8 374 -8 L374 -8 Z M131 355 C131 315 147 272 233 272 L335 272 L335 438 L222 438 C163 438 131 412 131 355 L131 355 Z " />
<glyph glyph-name="uni0450" unicode="&#x450;" horiz-adv-x="433" d="M232 61 C274 61 301 73 336 89 C338 90 343 92 350 92 C370 92 385 75 385 57 C385 8 277 -8 223 -8 C110 -8 45 64 45 158 L45 345 C45 441 109 514 228 514 C339 514 394 450 394 351 C394 259 344 203 225 203 C195 203 158 206 123 212 L123 153 C123 97 160 61 232 61 L232 61 Z M317 351 C317 416 284 443 226 443 C161 443 123 408 123 352 L123 276 C160 271 208 269 228 269 C304 269 317 310 317 351 L317 351 Z M187 705 L265 624 C269 619 270 614 270 609 C270 588 254 574 237 574 C224 574 216 581 205 592 L124 678 C120 683 119 690 119 695 C119 714 136 728 150 728 C168 728 173 718 187 705 L187 705 Z " />
<glyph glyph-name="uni0451" unicode="&#x451;" horiz-adv-x="433" d="M232 61 C274 61 301 73 336 89 C338 90 343 92 350 92 C370 92 385 75 385 57 C385 8 277 -8 223 -8 C110 -8 45 64 45 158 L45 345 C45 441 109 514 228 514 C339 514 394 450 394 351 C394 259 344 203 225 203 C195 203 158 206 123 212 L123 153 C123 97 160 61 232 61 L232 61 Z M317 351 C317 416 284 443 226 443 C161 443 123 408 123 352 L123 276 C160 271 208 269 228 269 C304 269 317 310 317 351 L317 351 Z M369 639 C369 612 348 590 322 590 C296 590 274 613 274 639 C274 664 296 686 322 686 C348 686 369 665 369 639 L369 639 Z M200 639 C200 612 179 590 152 590 C126 590 106 613 106 639 C106 664 126 686 152 686 C179 686 200 665 200 639 L200 639 Z " />
<glyph glyph-name="uni0452" unicode="&#x452;" horiz-adv-x="582" d="M429 21 L429 297 C429 373 404 411 342 411 C301 411 255 393 226 354 L226 31 C226 9 210 -8 188 -8 C166 -8 149 9 149 31 L149 570 L62 570 C41 570 25 586 25 606 C25 626 41 643 62 643 L149 643 L149 692 C149 712 165 731 187 731 C209 731 226 714 226 692 L226 643 L311 643 C331 643 347 626 347 606 C347 586 331 570 311 570 L226 570 L226 442 C260 468 303 484 351 484 C458 484 507 407 507 298 L507 25 C507 -104 456 -185 366 -202 C358 -203 353 -203 347 -203 C331 -203 318 -193 314 -177 C307 -150 329 -137 344 -134 C398 -118 429 -76 429 21 L429 21 Z " />
<glyph glyph-name="uni0453" unicode="&#x453;" horiz-adv-x="372" d="M151 435 L151 31 C151 9 134 -8 112 -8 C90 -8 73 9 73 31 L73 470 C73 490 89 505 109 505 L334 505 C353 505 370 490 370 470 C370 450 354 435 334 435 L151 435 L151 435 Z M194 624 L272 705 C286 718 291 728 309 728 C323 728 340 714 340 695 C340 690 339 683 335 678 L254 592 C242 581 235 574 222 574 C204 574 189 588 189 609 C189 614 190 619 194 624 L194 624 Z " />
<glyph glyph-name="uni0454" unicode="&#x454;" horiz-adv-x="390" d="M276 219 L123 219 L123 186 C123 107 151 61 222 61 C261 61 286 72 313 84 C319 86 324 87 329 87 C348 87 363 71 363 53 C363 6 264 -8 214 -8 C96 -8 45 77 45 186 L45 317 C45 426 96 511 214 511 C264 511 363 497 363 450 C363 432 348 416 329 416 C324 416 319 417 313 419 C286 431 261 442 222 442 C151 442 123 396 123 317 L123 289 L276 289 C296 289 312 274 312 254 C312 234 296 219 276 219 L276 219 Z " />
<glyph glyph-name="uni0455" unicode="&#x455;" horiz-adv-x="416" d="M53 370 C53 456 109 514 215 514 C267 514 348 500 348 458 C348 439 333 422 312 422 C305 422 300 424 294 427 C273 437 254 445 218 445 C157 445 129 421 129 375 C129 344 142 328 176 311 C245 277 362 268 362 138 C362 48 305 -8 194 -8 C143 -8 47 4 47 50 C47 67 60 86 84 86 C90 86 91 85 94 84 C122 73 154 61 194 61 C249 61 286 83 286 135 C286 171 269 186 249 197 C186 231 53 238 53 370 L53 370 Z " />
<glyph glyph-name="uni0456" unicode="&#x456;" horiz-adv-x="245" d="M170 668 C170 642 149 620 122 620 C95 620 74 642 74 668 C74 695 95 716 122 716 C149 716 170 695 170 668 L170 668 Z M161 31 C161 9 144 -8 122 -8 C100 -8 83 9 83 31 L83 472 C83 493 100 511 122 511 C144 511 161 493 161 472 L161 31 L161 31 Z " />
<glyph glyph-name="uni0457" unicode="&#x457;" horiz-adv-x="245" d="M161 31 C161 9 144 -8 122 -8 C100 -8 83 9 83 31 L83 472 C83 493 100 511 122 511 C144 511 161 493 161 472 L161 31 L161 31 Z M269 619 C269 589 245 565 216 565 C187 565 163 590 163 619 C163 647 187 671 216 671 C245 671 269 648 269 619 L269 619 Z M81 619 C81 589 58 565 28 565 C-1 565 -24 590 -24 619 C-24 647 -1 671 28 671 C58 671 81 648 81 619 L81 619 Z " />
<glyph glyph-name="uni0458" unicode="&#x458;" horiz-adv-x="245" d="M174 472 L174 -15 C174 -120 123 -189 33 -202 C25 -203 20 -203 14 -203 C-2 -203 -15 -193 -19 -177 C-26 -150 -4 -137 11 -134 C65 -122 96 -92 96 -19 L96 472 C96 493 113 511 135 511 C157 511 174 493 174 472 L174 472 Z M183 668 C183 642 162 620 135 620 C108 620 87 642 87 668 C87 695 108 716 135 716 C162 716 183 695 183 668 L183 668 Z " />
<glyph glyph-name="uni0459" unicode="&#x459;" horiz-adv-x="737" d="M397 505 C419 505 436 487 436 466 L436 299 L518 299 C645 299 697 244 697 147 C697 60 642 0 531 0 L397 0 C375 0 358 18 358 39 L358 439 L219 439 L197 163 C189 62 156 -5 77 -5 C46 -5 16 -4 16 30 C16 57 35 68 53 68 C59 68 59 67 66 67 C102 67 118 96 123 157 L149 466 C152 495 172 505 187 505 L397 505 L397 505 Z M518 233 L436 233 L436 67 L529 67 C588 67 620 93 620 150 C620 190 604 233 518 233 L518 233 Z " />
<glyph glyph-name="uni045A" unicode="&#x45a;" horiz-adv-x="722" d="M151 31 C151 9 134 -8 112 -8 C90 -8 73 9 73 31 L73 472 C73 493 90 511 112 511 C134 511 151 493 151 472 L151 294 L343 294 L343 472 C343 493 360 511 382 511 C404 511 421 493 421 472 L421 294 L503 294 C630 294 682 241 682 147 C682 60 627 0 516 0 L382 0 C360 0 343 18 343 39 L343 228 L151 228 L151 31 L151 31 Z M503 228 L421 228 L421 67 L514 67 C574 67 605 93 605 150 C605 188 589 228 503 228 L503 228 Z " />
<glyph glyph-name="uni045B" unicode="&#x45b;" horiz-adv-x="582" d="M347 606 C347 586 331 570 311 570 L226 570 L226 442 C260 468 303 484 351 484 C458 484 507 415 507 318 L507 31 C507 9 489 -8 468 -8 C446 -8 429 9 429 31 L429 317 C429 379 404 411 342 411 C301 411 255 393 226 354 L226 31 C226 9 210 -8 188 -8 C166 -8 149 9 149 31 L149 570 L62 570 C41 570 25 586 25 606 C25 626 41 643 62 643 L149 643 L149 692 C149 712 165 731 187 731 C209 731 226 714 226 692 L226 643 L311 643 C331 643 347 626 347 606 L347 606 Z " />
<glyph glyph-name="uni045C" unicode="&#x45c;" horiz-adv-x="436" d="M151 31 C151 9 134 -8 112 -8 C90 -8 73 9 73 31 L73 472 C73 493 90 511 112 511 C134 511 151 493 151 472 L151 294 L212 294 L342 491 C350 504 361 510 374 510 C394 510 410 497 411 477 C411 470 409 460 405 454 L268 251 L405 48 C409 42 411 32 411 25 C410 5 394 -8 374 -8 C361 -8 350 -2 342 11 L199 228 L151 228 L151 31 L151 31 Z M214 624 L292 705 C306 718 311 728 329 728 C343 728 360 714 360 695 C360 690 359 683 355 678 L274 592 C262 581 255 574 242 574 C224 574 209 588 209 609 C209 614 210 619 214 624 L214 624 Z " />
<glyph glyph-name="uni045D" unicode="&#x45d;" horiz-adv-x="530" d="M117 -10 C91 -10 73 10 73 34 L73 471 C73 493 89 512 111 512 C133 512 151 493 151 471 L151 134 L373 488 C381 503 397 512 414 512 C439 512 456 493 456 468 L456 31 C456 9 439 -10 417 -10 C395 -10 378 9 378 31 L378 368 L157 13 C148 -1 133 -10 117 -10 L117 -10 Z M233 705 L311 624 C315 619 316 614 316 609 C316 588 300 574 283 574 C270 574 262 581 251 592 L170 678 C166 683 165 690 165 695 C165 714 182 728 196 728 C214 728 219 718 233 705 L233 705 Z " />
<glyph glyph-name="uni045E" unicode="&#x45e;" horiz-adv-x="412" d="M397 460 L275 63 C227 -93 189 -200 59 -203 C36 -203 19 -187 19 -165 C19 -147 33 -129 56 -128 C119 -125 147 -91 177 2 L18 461 C16 464 16 471 16 475 C16 496 33 511 55 511 C70 511 84 502 90 485 L215 106 L324 485 C330 502 345 511 360 511 C380 511 399 495 399 472 C399 468 398 464 397 460 L397 460 Z M206 633 C228 633 250 644 271 674 C278 685 290 690 301 690 C318 690 334 679 327 653 C314 599 251 572 206 572 C161 572 98 599 84 653 C78 679 94 690 111 690 C122 690 134 685 141 674 C162 644 183 633 206 633 L206 633 Z " />
<glyph glyph-name="uni045F" unicode="&#x45f;" horiz-adv-x="504" d="M291 -101 C291 -123 274 -140 252 -140 C230 -140 213 -123 213 -101 L213 0 L112 0 C90 0 73 18 73 39 L73 474 C73 496 90 513 112 513 C134 513 151 496 151 474 L151 66 L353 66 L353 474 C353 496 370 513 392 513 C414 513 431 496 431 474 L431 39 C431 18 414 0 392 0 L291 0 L291 -101 L291 -101 Z " />
<glyph glyph-name="uni0462" unicode="&#x462;" horiz-adv-x="644" d="M458 617 C458 596 439 578 417 578 L241 578 L241 426 L356 426 C493 426 581 351 581 215 C581 103 522 0 356 0 L209 0 C183 0 161 22 161 48 L161 578 L65 578 C42 578 25 597 25 616 C25 635 43 656 65 656 L161 656 L161 725 C161 746 179 765 201 765 C223 765 241 746 241 725 L241 656 L417 656 C438 656 458 639 458 617 L458 617 Z M241 78 L356 78 C474 78 501 147 501 214 C501 305 451 348 356 348 L241 348 L241 78 L241 78 Z " />
<glyph glyph-name="uni0463" unicode="&#x463;" horiz-adv-x="582" d="M347 556 C347 536 331 520 311 520 L227 520 L227 349 L329 349 C455 349 508 286 508 179 C508 71 453 0 342 0 L188 0 C166 0 149 18 149 39 L149 520 L62 520 C41 520 25 537 25 557 C25 577 41 593 62 593 L149 593 L149 682 C149 704 166 721 188 721 C210 721 227 704 227 682 L227 593 L311 593 C331 593 347 576 347 556 L347 556 Z M329 283 L227 283 L227 67 L340 67 C399 67 431 103 431 178 C431 229 416 283 329 283 L329 283 Z " />
<glyph glyph-name="uni0490" unicode="&#x490;" horiz-adv-x="430" d="M73 661 C73 683 92 706 118 706 L349 706 L349 797 C349 818 367 837 389 837 C411 837 429 818 429 797 L429 667 C429 645 412 628 390 628 L153 628 L153 31 C153 10 135 -9 113 -9 C91 -9 73 10 73 31 L73 661 L73 661 Z " />
<glyph glyph-name="uni0491" unicode="&#x491;" horiz-adv-x="375" d="M295 602 C295 624 312 641 334 641 C356 641 373 624 373 602 L373 474 C373 452 356 435 334 435 L151 435 L151 31 C151 9 134 -8 112 -8 C90 -8 73 9 73 31 L73 470 C73 490 89 505 109 505 L295 505 L295 602 L295 602 Z " />
<glyph glyph-name="Wgrave" unicode="&#x1e80;" horiz-adv-x="776" d="M503 47 L388 550 L272 46 C265 20 252 -10 219 -10 C190 -10 172 16 165 46 L16 665 C15 665 15 676 15 676 C15 698 39 711 60 711 C76 711 91 702 96 682 L220 149 L336 657 C345 694 354 715 388 715 C420 715 431 692 439 657 L555 149 L679 682 C685 700 697 711 713 711 C734 711 761 700 761 675 C761 673 760 669 759 664 L610 46 C603 17 587 -10 557 -10 C527 -10 510 18 503 47 L503 47 Z M380 905 L458 824 C462 819 463 814 463 809 C463 788 447 774 430 774 C417 774 409 781 398 792 L317 878 C313 883 312 890 312 895 C312 914 329 928 343 928 C361 928 366 918 380 905 L380 905 Z " />
<glyph glyph-name="wgrave" unicode="&#x1e81;" horiz-adv-x="655" d="M629 465 L514 37 C505 7 493 -8 464 -8 C443 -8 424 4 418 26 L328 377 L239 26 C232 2 217 -8 192 -8 C165 -8 150 9 142 37 L26 468 C25 470 25 472 25 474 C25 493 42 511 64 511 C80 511 95 501 100 483 L194 115 C225 236 254 354 284 476 C289 496 305 511 329 511 C352 511 367 496 372 476 C401 354 432 236 463 115 L556 483 C560 499 575 511 592 511 C612 511 630 494 630 472 C630 470 629 467 629 465 L629 465 Z M320 705 L398 624 C402 619 403 614 403 609 C403 588 387 574 370 574 C357 574 349 581 338 592 L257 678 C253 683 252 690 252 695 C252 714 269 728 283 728 C301 728 306 718 320 705 L320 705 Z " />
<glyph glyph-name="Wacute" unicode="&#x1e82;" horiz-adv-x="776" d="M503 47 L388 550 L272 46 C265 20 252 -10 219 -10 C190 -10 172 16 165 46 L16 665 C15 665 15 676 15 676 C15 698 39 711 60 711 C76 711 91 702 96 682 L220 149 L336 657 C345 694 354 715 388 715 C420 715 431 692 439 657 L555 149 L679 682 C685 700 697 711 713 711 C734 711 761 700 761 675 C761 673 760 669 759 664 L610 46 C603 17 587 -10 557 -10 C527 -10 510 18 503 47 L503 47 Z M317 824 L395 905 C409 918 414 928 432 928 C446 928 463 914 463 895 C463 890 462 883 458 878 L377 792 C365 781 358 774 345 774 C327 774 312 788 312 809 C312 814 313 819 317 824 L317 824 Z " />
<glyph glyph-name="wacute" unicode="&#x1e83;" horiz-adv-x="655" d="M629 465 L514 37 C505 7 493 -8 464 -8 C443 -8 424 4 418 26 L328 377 L239 26 C232 2 217 -8 192 -8 C165 -8 150 9 142 37 L26 468 C25 470 25 472 25 474 C25 493 42 511 64 511 C80 511 95 501 100 483 L194 115 C225 236 254 354 284 476 C289 496 305 511 329 511 C352 511 367 496 372 476 C401 354 432 236 463 115 L556 483 C560 499 575 511 592 511 C612 511 630 494 630 472 C630 470 629 467 629 465 L629 465 Z M257 624 L335 705 C349 718 354 728 372 728 C386 728 403 714 403 695 C403 690 402 683 398 678 L317 592 C305 581 298 574 285 574 C267 574 252 588 252 609 C252 614 253 619 257 624 L257 624 Z " />
<glyph glyph-name="Wdieresis" unicode="&#x1e84;" horiz-adv-x="776" d="M503 47 L388 550 L272 46 C265 20 252 -10 219 -10 C190 -10 172 16 165 46 L16 665 C15 665 15 676 15 676 C15 698 39 711 60 711 C76 711 91 702 96 682 L220 149 L336 657 C345 694 354 715 388 715 C420 715 431 692 439 657 L555 149 L679 682 C685 700 697 711 713 711 C734 711 761 700 761 675 C761 673 760 669 759 664 L610 46 C603 17 587 -10 557 -10 C527 -10 510 18 503 47 L503 47 Z M519 839 C519 812 498 790 472 790 C446 790 424 813 424 839 C424 864 446 886 472 886 C498 886 519 865 519 839 L519 839 Z M350 839 C350 812 329 790 302 790 C276 790 256 813 256 839 C256 864 276 886 302 886 C329 886 350 865 350 839 L350 839 Z " />
<glyph glyph-name="wdieresis" unicode="&#x1e85;" horiz-adv-x="655" d="M629 465 L514 37 C505 7 493 -8 464 -8 C443 -8 424 4 418 26 L328 377 L239 26 C232 2 217 -8 192 -8 C165 -8 150 9 142 37 L26 468 C25 470 25 472 25 474 C25 493 42 511 64 511 C80 511 95 501 100 483 L194 115 C225 236 254 354 284 476 C289 496 305 511 329 511 C352 511 367 496 372 476 C401 354 432 236 463 115 L556 483 C560 499 575 511 592 511 C612 511 630 494 630 472 C630 470 629 467 629 465 L629 465 Z M459 639 C459 612 438 590 412 590 C386 590 364 613 364 639 C364 664 386 686 412 686 C438 686 459 665 459 639 L459 639 Z M290 639 C290 612 269 590 242 590 C216 590 196 613 196 639 C196 664 216 686 242 686 C269 686 290 665 290 639 L290 639 Z " />
</font>
</svg>
