<?xml version="1.0" encoding="UTF-8"?>
<svg xmlns="http://www.w3.org/2000/svg" xmlns:xlink="http://www.w3.org/1999/xlink" version="1.2" >
<font id="Blogger Sans Light">
<font-face  font-family="Blogger Sans" units-per-em="1000" ascent="725" descent="-240" font-style="normal" font-weight="300" font-stretch="" cap-height="705" x-height="505" underline-position="-133" underline-thickness="20" />
<missing-glyph  horiz-adv-x="760" d="" />
<glyph glyph-name="NULL" d="" />
<glyph glyph-name="CR" unicode="&#xd;" horiz-adv-x="250" d="" />
<glyph glyph-name="space" unicode="&#x20;" horiz-adv-x="300" d="" />
<glyph glyph-name="exclam" unicode="&#x21;" horiz-adv-x="227" d="M91 199 L80 683 C80 700 96 716 114 716 C133 716 147 700 148 683 L137 199 C137 186 126 175 114 175 C101 175 91 186 91 199 L91 199 Z M162 39 C162 12 142 -9 116 -9 C90 -9 68 12 68 39 C68 64 90 86 116 86 C142 86 162 64 162 39 L162 39 Z " />
<glyph glyph-name="quotedbl" unicode="&#x22;" horiz-adv-x="342" d="M62 487 L92 736 C96 751 113 762 132 760 C151 757 165 742 160 726 L103 479 C101 469 89 462 79 461 C69 464 60 477 62 487 L62 487 Z M195 487 L225 736 C229 751 246 762 265 760 C284 757 297 742 293 726 L236 479 C234 469 222 462 212 461 C201 464 193 477 195 487 L195 487 Z " />
<glyph glyph-name="numbersign" unicode="&#x23;" horiz-adv-x="541" d="M110 479 L178 479 L225 690 C229 704 241 713 256 713 C269 710 282 698 281 683 L281 676 L237 479 L362 479 L409 690 C413 703 424 712 438 713 C454 711 466 699 465 683 L465 676 L421 479 L466 479 C482 479 498 465 498 447 C498 429 483 415 466 415 L407 415 L380 295 L435 295 C452 295 467 281 467 263 C467 245 453 231 435 231 L366 231 L319 17 C315 3 303 -6 288 -6 L289 -7 C273 -5 261 8 261 25 C261 27 262 30 263 32 L307 231 L182 231 L135 17 C131 3 119 -6 104 -6 L105 -7 C90 -5 77 8 77 25 C77 27 78 30 79 32 L123 231 L80 231 C61 231 47 245 47 263 C47 281 63 295 80 295 L137 295 L164 415 L110 415 C92 415 78 429 78 447 C78 465 94 479 110 479 L110 479 Z M223 415 L196 295 L321 295 L347 415 L223 415 L223 415 Z " />
<glyph glyph-name="dollar" unicode="&#x24;" horiz-adv-x="500" d="M234 -36 L234 20 C165 22 54 41 54 89 C54 105 68 122 85 122 C91 122 107 115 119 110 C143 100 178 89 234 86 L234 331 C145 361 55 394 55 511 C55 613 124 675 234 685 L234 742 C234 752 243 761 254 761 C264 761 272 752 272 742 L272 685 C331 680 421 666 421 623 C421 607 409 593 389 593 C376 593 364 597 353 602 C336 609 313 615 272 620 L272 387 C360 358 451 323 451 207 C451 101 376 36 272 21 L272 -36 C272 -46 264 -54 254 -54 C243 -54 234 -46 234 -36 L234 -36 Z M380 199 C380 263 346 287 318 300 C310 303 302 308 272 318 L272 87 C344 99 380 138 380 199 L380 199 Z M189 418 C200 413 222 404 234 398 L234 619 C175 611 125 584 125 517 C125 454 164 430 189 418 L189 418 Z " />
<glyph glyph-name="percent" unicode="&#x25;" horiz-adv-x="703" d="M196 406 C109 406 59 473 59 561 C59 649 107 717 196 717 C285 717 332 649 332 561 C332 473 285 406 196 406 L196 406 Z M196 454 C253 454 278 494 278 563 C278 629 253 669 196 669 C140 669 114 629 114 563 C114 494 140 454 196 454 L196 454 Z M514 -9 C425 -9 377 58 377 146 C377 234 425 302 514 302 C602 302 650 234 650 146 C650 58 603 -9 514 -9 L514 -9 Z M514 39 C570 39 596 79 596 148 C596 215 570 254 514 254 C458 254 431 215 431 148 C431 79 458 39 514 39 L514 39 Z M553 674 L209 13 L209 14 C201 0 187 -5 174 -2 L175 -2 C160 4 151 20 156 36 L156 35 L160 43 L504 703 L504 702 C512 715 525 720 539 716 C552 711 561 694 555 677 C555 676 554 675 553 674 L553 674 Z " />
<glyph glyph-name="ampersand" unicode="&#x26;" horiz-adv-x="642" d="M596 24 C596 6 583 -9 566 -9 C552 -9 545 -2 536 9 L465 93 C412 39 347 -9 256 -9 C134 -9 52 72 52 177 C52 283 132 347 210 393 C157 451 121 506 121 562 C121 657 201 714 288 714 C376 714 445 651 445 589 C445 571 430 558 414 558 C400 558 389 569 385 582 C375 619 339 657 291 657 C236 657 185 620 185 560 C185 518 222 473 268 419 L463 193 C495 243 514 284 532 322 C541 342 548 343 560 343 C576 343 590 329 590 312 C590 271 543 193 506 142 L589 43 C594 38 596 32 596 24 L596 24 Z M425 142 L247 346 C182 311 115 263 115 185 C115 112 168 49 250 49 C322 49 377 89 425 142 L425 142 Z " />
<glyph glyph-name="quotesingle" unicode="&#x27;" horiz-adv-x="222" d="M63 487 L93 736 C97 751 114 762 133 760 C152 757 165 742 161 726 L104 479 C102 469 90 462 79 461 C69 464 61 477 63 487 L63 487 Z " />
<glyph glyph-name="parenleft" unicode="&#x28;" horiz-adv-x="276" d="M137 219 C137 83 172 -66 236 -186 C239 -192 246 -204 246 -209 C246 -227 236 -244 215 -244 C204 -244 193 -238 187 -229 C111 -97 72 70 72 219 C72 367 111 534 187 666 C194 676 204 683 215 683 C236 683 246 664 246 647 C246 640 240 631 236 623 C172 504 137 355 137 219 L137 219 Z " />
<glyph glyph-name="parenright" unicode="&#x29;" horiz-adv-x="275" d="M140 219 C140 357 106 504 42 623 C37 631 31 643 31 647 C31 664 42 683 63 683 C74 683 83 676 91 666 C167 535 205 367 205 219 C205 70 167 -98 91 -229 C84 -238 74 -244 63 -244 C42 -244 31 -227 31 -209 C31 -205 37 -194 42 -186 C106 -66 140 81 140 219 L140 219 Z " />
<glyph glyph-name="asterisk" unicode="&#x2a;" horiz-adv-x="495" d="M437 599 L437 598 C443 581 428 568 415 562 L285 526 L369 420 C377 408 380 390 364 379 C349 368 332 376 324 386 L250 501 L175 387 C166 376 149 370 134 379 C120 389 121 409 130 420 L215 526 L84 562 C71 568 58 583 63 599 C69 618 86 621 100 616 L228 568 L221 703 C220 718 229 734 250 734 C270 734 279 718 278 703 L271 568 L398 616 C412 621 430 618 437 599 L437 599 Z " />
<glyph glyph-name="plus" unicode="&#x2b;" horiz-adv-x="500" d="M220 141 L220 323 L49 323 C31 323 17 337 17 355 C17 373 33 387 49 387 L220 387 L220 568 C220 584 234 601 253 601 C270 601 284 586 284 568 L284 387 L456 387 C472 387 488 373 488 355 C488 337 473 323 456 323 L284 323 L284 141 C284 124 270 109 253 109 C234 109 220 125 220 141 L220 141 Z " />
<glyph glyph-name="comma" unicode="&#x2c;" horiz-adv-x="230" d="M162 39 C162 -27 117 -121 93 -121 C87 -121 80 -119 80 -111 C80 -97 89 -84 98 -67 C105 -55 111 -47 120 -11 C91 -8 68 12 68 39 C68 64 90 86 116 86 C142 86 162 64 162 39 L162 39 Z " />
<glyph glyph-name="hyphen" unicode="&#x2d;" horiz-adv-x="399" d="M357 294 C357 278 345 266 329 266 L74 266 C57 266 44 278 44 294 C44 311 57 325 74 325 L329 325 C345 325 357 311 357 294 L357 294 Z " />
<glyph glyph-name="period" unicode="&#x2e;" horiz-adv-x="230" d="M162 39 C162 12 142 -9 116 -9 C90 -9 68 12 68 39 C68 64 90 86 116 86 C142 86 162 64 162 39 L162 39 Z " />
<glyph glyph-name="slash" unicode="&#x2f;" horiz-adv-x="280" d="M302 720 L38 -24 C33 -38 19 -46 4 -44 C-13 -41 -23 -25 -21 -7 C-21 -6 -20 -2 -19 0 L244 740 C249 754 263 761 278 759 C294 756 308 736 302 720 L302 720 Z " />
<glyph glyph-name="zero" unicode="0" horiz-adv-x="500" d="M253 667 C158 667 120 601 120 508 L120 195 C120 109 167 51 253 51 C338 51 384 109 384 195 L384 508 C384 601 347 667 253 667 L253 667 Z M253 726 C390 726 450 624 450 500 L450 195 C450 81 380 -9 253 -9 C125 -9 54 81 54 195 L54 500 C54 624 115 726 253 726 L253 726 Z " />
<glyph glyph-name="one" unicode="1" horiz-adv-x="500" d="M282 25 L282 631 L145 544 C132 534 116 525 104 525 C90 525 75 537 75 552 C75 564 81 574 91 581 L292 710 C299 714 305 716 312 716 C333 716 348 700 348 679 L348 25 C348 7 334 -8 315 -8 C297 -8 282 7 282 25 L282 25 Z " />
<glyph glyph-name="two" unicode="2" horiz-adv-x="500" d="M453 32 C453 14 439 1 421 1 L85 1 C65 1 50 16 50 36 C50 47 51 61 56 73 C92 157 170 236 235 299 C267 330 300 361 327 392 C357 427 384 471 384 527 C384 607 340 667 251 667 C213 667 178 659 150 647 C143 644 131 637 123 631 C113 625 101 619 92 619 C76 619 61 631 61 649 C61 661 70 672 84 682 C134 711 190 726 252 726 C376 726 449 643 449 538 C449 456 419 401 377 355 C346 318 318 292 293 268 C229 208 167 145 128 63 L421 63 C439 63 453 49 453 32 L453 32 Z " />
<glyph glyph-name="three" unicode="3" horiz-adv-x="500" d="M416 642 L235 410 C357 407 447 338 447 217 C447 115 386 -8 238 -8 C199 -8 58 1 58 59 C58 76 71 91 88 91 C92 91 98 89 106 85 C140 68 175 50 235 50 C347 50 381 137 381 213 C381 313 319 353 235 353 C221 353 209 350 198 345 C185 339 181 340 174 340 C153 340 138 369 154 389 L347 639 L103 639 C85 639 71 653 71 670 C71 689 85 705 103 705 L389 705 C409 705 424 690 424 666 C424 656 422 649 416 642 L416 642 Z " />
<glyph glyph-name="four" unicode="4" horiz-adv-x="500" d="M402 153 L402 24 C402 6 387 -8 370 -8 C352 -8 337 6 337 24 L337 153 L75 153 C54 153 40 170 40 189 C40 191 43 203 48 214 L244 705 C251 715 262 724 272 724 C287 724 304 709 304 691 C304 687 304 683 303 680 L116 215 L337 215 L337 422 C337 440 352 455 370 455 C387 455 402 440 402 422 L402 215 L454 215 C470 215 483 200 483 184 C483 167 470 153 454 153 L402 153 L402 153 Z " />
<glyph glyph-name="five" unicode="5" horiz-adv-x="500" d="M447 223 C447 112 389 -8 249 -8 C208 -8 58 1 58 59 C58 76 71 91 88 91 C92 91 98 89 106 85 L106 86 C134 68 169 50 225 50 C345 50 381 134 381 219 C381 326 322 377 246 377 C215 377 190 368 167 355 L146 341 C137 334 128 328 116 328 C97 328 81 343 82 364 L92 669 C93 694 113 707 132 707 L378 707 C397 707 417 699 417 675 C417 654 397 646 378 646 L150 646 L142 404 C179 425 214 434 248 434 C364 434 447 356 447 223 L447 223 Z " />
<glyph glyph-name="six" unicode="6" horiz-adv-x="500" d="M115 385 C158 420 213 432 261 432 C370 432 458 360 458 218 C458 94 392 -9 254 -9 C92 -9 46 134 46 332 C46 579 118 716 264 716 C297 716 413 710 413 667 C413 653 401 638 384 638 C377 638 371 640 364 642 C341 649 309 658 277 658 C146 658 115 537 115 385 L115 385 Z M113 308 L113 280 C113 162 137 55 258 55 C359 55 393 133 393 216 C393 321 338 370 258 370 C199 370 142 343 113 308 L113 308 Z " />
<glyph glyph-name="seven" unicode="7" horiz-adv-x="500" d="M449 672 C449 666 448 658 446 653 L191 12 C186 -1 174 -8 162 -8 C145 -8 130 3 128 20 C128 26 129 31 131 37 L131 36 L375 642 L87 642 C71 642 55 656 55 673 C55 693 70 707 87 707 L414 707 C434 707 449 692 449 672 L449 672 Z " />
<glyph glyph-name="eight" unicode="8" horiz-adv-x="500" d="M470 192 C470 77 380 -9 253 -9 C126 -9 33 74 33 188 C33 275 92 333 167 373 C105 411 59 465 59 539 C59 648 146 715 252 715 C360 715 444 644 444 542 C444 475 405 421 337 379 C412 339 470 281 470 192 L470 192 Z M380 537 C380 609 324 658 253 658 C179 658 123 609 123 537 C123 464 185 418 256 405 C324 420 380 469 380 537 L380 537 Z M405 193 C405 281 328 330 249 345 C165 328 98 274 98 192 C98 110 165 50 253 50 C342 50 405 112 405 193 L405 193 Z " />
<glyph glyph-name="nine" unicode="9" horiz-adv-x="500" d="M390 335 C355 290 293 275 244 275 C136 275 46 343 46 490 C46 612 108 716 248 716 C409 716 458 576 458 366 C458 118 390 -9 241 -9 C208 -9 91 -3 91 39 C91 54 105 69 121 69 C125 69 132 67 141 64 C167 57 199 49 238 49 C361 49 390 179 390 335 L390 335 Z M392 397 L392 426 C392 554 353 652 244 652 C146 652 112 572 112 489 C112 385 166 337 249 337 C308 337 362 363 392 397 L392 397 Z " />
<glyph glyph-name="colon" unicode="&#x3a;" horiz-adv-x="230" d="M162 39 C162 12 142 -9 116 -9 C90 -9 68 12 68 39 C68 64 90 86 116 86 C142 86 162 64 162 39 L162 39 Z M162 339 C162 312 142 291 116 291 C90 291 68 312 68 339 C68 364 90 386 116 386 C142 386 162 364 162 339 L162 339 Z " />
<glyph glyph-name="semicolon" unicode="&#x3b;" horiz-adv-x="230" d="M162 39 C162 -27 117 -121 93 -121 C87 -121 80 -119 80 -111 C80 -97 89 -84 98 -67 C105 -55 111 -47 120 -11 C91 -8 68 12 68 39 C68 64 90 86 116 86 C142 86 162 64 162 39 L162 39 Z M162 339 C162 312 142 291 116 291 C90 291 68 312 68 339 C68 364 90 386 116 386 C142 386 162 364 162 339 L162 339 Z " />
<glyph glyph-name="less" unicode="&#x3c;" horiz-adv-x="625" d="M154 353 L534 161 C547 154 557 143 557 132 C557 109 536 90 516 100 L105 314 C89 322 73 332 73 353 C73 375 87 383 104 392 L515 606 C537 613 557 597 557 574 C557 562 547 550 534 544 L154 353 L154 353 Z " />
<glyph glyph-name="equal" unicode="&#x3d;" horiz-adv-x="500" d="M90 295 L415 295 C431 295 447 281 447 263 C447 245 433 231 415 231 L90 231 C72 231 58 245 58 263 C58 281 74 295 90 295 L90 295 Z M90 479 L415 479 C431 479 447 465 447 447 C447 429 433 415 415 415 L90 415 C72 415 58 429 58 447 C58 465 74 479 90 479 L90 479 Z " />
<glyph glyph-name="greater" unicode="&#x3e;" horiz-adv-x="625" d="M98 161 L478 353 L98 544 C83 551 73 562 73 574 C73 597 96 617 116 606 L528 392 C544 384 557 376 557 353 C557 331 543 322 527 314 L116 100 C96 89 73 109 73 132 C73 143 83 154 98 161 L98 161 Z " />
<glyph glyph-name="question" unicode="&#x3f;" horiz-adv-x="462" d="M269 250 C263 237 262 221 262 207 C262 190 248 175 229 175 C211 175 196 190 196 207 C196 219 197 233 202 244 C217 287 247 321 276 354 C288 366 299 379 309 392 C338 427 366 472 366 527 C366 607 321 667 232 667 C195 667 160 659 132 647 C125 644 113 637 105 631 C94 625 83 619 74 619 C58 619 42 631 42 649 C42 661 52 672 66 682 C116 711 172 726 233 726 C358 726 431 643 431 538 C431 456 401 401 359 355 C339 330 336 329 326 320 C304 297 281 276 269 250 L269 250 Z M276 39 C276 12 256 -9 230 -9 C204 -9 182 12 182 39 C182 64 204 86 230 86 C256 86 276 64 276 39 L276 39 Z " />
<glyph glyph-name="at" unicode="&#x40;" horiz-adv-x="744" d="M516 14 C481 0 422 -12 366 -12 C181 -12 68 120 68 313 C68 502 177 635 374 635 C576 635 683 494 683 321 C683 230 652 162 567 162 C524 162 495 180 474 209 C434 168 398 152 361 152 C278 152 232 222 232 313 C232 409 283 474 378 474 C470 474 500 405 510 317 C513 278 521 221 567 221 C606 221 618 258 618 314 C618 464 535 576 375 576 C218 576 133 468 133 311 C133 154 218 46 380 46 C437 46 469 59 491 68 C503 74 506 74 511 76 C524 79 544 73 551 58 C554 37 535 24 516 14 L516 14 Z M444 321 C441 361 437 416 374 416 C319 416 296 376 296 310 C296 246 318 208 368 208 C397 208 427 224 456 251 C450 275 446 298 444 321 L444 321 Z " />
<glyph glyph-name="A" unicode="A" horiz-adv-x="549" d="M142 163 L97 15 C91 3 76 -9 65 -9 C46 -9 30 4 30 24 C30 27 31 34 32 37 L231 667 C239 695 251 716 277 716 C302 716 315 694 324 667 L523 37 C523 35 524 28 524 24 C524 4 509 -9 489 -9 C477 -9 461 1 457 15 L411 163 L142 163 L142 163 Z M277 607 L161 228 L392 228 L277 607 L277 607 Z " />
<glyph glyph-name="B" unicode="B" horiz-adv-x="542" d="M145 400 L271 400 C340 400 418 440 418 528 C418 586 385 642 288 642 L145 642 L145 400 L145 400 Z M274 335 L145 335 L145 65 L278 65 C385 65 437 119 437 196 C437 286 368 335 274 335 L274 335 Z M289 1 L120 1 C97 1 79 19 79 42 L79 664 C79 688 98 706 120 706 L293 706 C421 706 484 618 484 527 C484 443 430 397 358 363 C424 339 504 306 504 197 C504 87 422 1 289 1 L289 1 Z " />
<glyph glyph-name="C" unicode="C" horiz-adv-x="482" d="M50 244 L50 463 C50 616 121 716 273 716 C362 716 446 679 446 636 C446 620 434 608 417 608 C408 608 403 612 395 617 C393 619 388 621 385 623 C352 645 318 657 278 657 C157 657 117 582 117 463 L117 244 C117 126 157 51 278 51 C318 51 352 61 383 83 L394 90 C404 97 410 100 417 100 C434 100 446 87 446 72 C446 28 362 -8 273 -8 C121 -8 50 92 50 244 L50 244 Z " />
<glyph glyph-name="D" unicode="D" horiz-adv-x="554" d="M508 263 C508 127 439 1 236 1 L120 1 C98 1 79 19 79 42 L79 665 C79 688 98 707 120 707 L236 707 C438 707 508 586 508 454 L508 263 L508 263 Z M441 263 L441 454 C441 559 391 643 253 643 L145 643 L145 65 L253 65 C393 65 441 153 441 263 L441 263 Z " />
<glyph glyph-name="E" unicode="E" horiz-adv-x="474" d="M440 35 C440 15 425 1 407 1 L136 1 C106 1 79 10 79 41 L79 665 C79 686 96 706 120 706 L397 706 C415 706 429 691 429 672 C429 655 415 642 397 642 L145 642 L145 387 L377 387 C394 387 409 373 409 355 C409 337 395 323 377 323 L145 323 L145 65 L407 65 C424 65 440 51 440 35 L440 35 Z " />
<glyph glyph-name="F" unicode="F" horiz-adv-x="474" d="M145 323 L145 24 C145 6 131 -9 113 -9 C94 -9 79 6 79 24 L79 665 C79 686 96 706 120 706 L397 706 C415 706 429 691 429 672 C429 655 415 642 397 642 L145 642 L145 387 L377 387 C394 387 409 373 409 355 C409 337 395 323 377 323 L145 323 L145 323 Z " />
<glyph glyph-name="G" unicode="G" horiz-adv-x="520" d="M117 463 L117 244 C117 126 157 51 278 51 C329 51 368 66 401 92 L401 324 L294 324 C278 324 263 337 263 355 C263 372 278 386 294 386 L416 386 C445 386 466 374 466 346 L466 102 C466 26 360 -8 273 -8 C121 -8 50 92 50 244 L50 463 C50 616 121 716 273 716 C362 716 446 679 446 636 C446 620 433 608 417 608 C408 608 403 612 395 617 C393 619 387 621 384 623 C352 645 318 657 278 657 C157 657 117 582 117 463 L117 463 Z " />
<glyph glyph-name="H" unicode="H" horiz-adv-x="580" d="M506 25 C506 6 491 -9 473 -9 C456 -9 439 6 439 25 L439 322 L145 322 L145 25 C145 6 131 -9 112 -9 C94 -9 79 6 79 25 L79 683 C79 700 94 716 112 716 C131 716 145 700 145 683 L145 386 L439 386 L439 683 C439 700 456 716 473 716 C490 716 506 700 506 683 L506 25 L506 25 Z " />
<glyph glyph-name="I" unicode="I" horiz-adv-x="227" d="M80 24 L80 683 C80 700 96 716 114 716 C133 716 147 700 147 683 L147 24 C147 6 133 -9 114 -9 C96 -9 80 6 80 24 L80 24 Z " />
<glyph glyph-name="J" unicode="J" horiz-adv-x="385" d="M309 683 L309 223 C309 79 263 -9 111 -9 C84 -9 31 -7 31 29 C31 50 47 61 59 61 C61 61 68 60 75 59 C86 57 101 54 122 54 C222 54 242 120 242 223 L242 683 C242 701 257 716 276 716 C293 716 309 700 309 683 L309 683 Z " />
<glyph glyph-name="K" unicode="K" horiz-adv-x="498" d="M432 6 L204 337 L145 264 L145 25 C145 6 131 -9 112 -9 C94 -9 79 6 79 25 L79 683 C79 700 94 716 112 716 C131 716 145 700 145 683 L145 363 L418 699 C424 708 437 716 449 716 C461 716 478 706 477 684 C476 674 473 667 469 661 L469 662 L246 388 L487 42 L486 42 C489 37 490 33 490 27 C490 11 484 -9 461 -9 C447 -9 439 -3 432 6 L432 6 Z " />
<glyph glyph-name="L" unicode="L" horiz-adv-x="448" d="M437 33 C437 15 423 1 406 1 L118 1 C97 1 79 17 79 39 L79 683 C79 700 94 716 113 716 C131 716 145 700 145 683 L145 64 L406 64 C422 64 437 50 437 33 L437 33 Z " />
<glyph glyph-name="M" unicode="M" horiz-adv-x="699" d="M630 680 L630 22 C630 5 615 -9 598 -9 C580 -9 563 5 563 22 L563 552 C510 437 438 287 384 172 C377 159 365 152 352 152 C338 152 326 160 320 172 L140 552 L140 22 C140 5 125 -9 105 -9 C88 -9 74 5 74 22 L74 680 C74 701 89 716 110 716 C127 716 138 708 146 693 L146 694 L353 251 L559 695 L559 694 C568 710 581 716 595 716 C614 716 630 700 630 680 L630 680 Z " />
<glyph glyph-name="N" unicode="N" horiz-adv-x="600" d="M489 -9 C476 -9 460 -2 454 10 L145 581 L145 25 C145 6 130 -9 111 -9 C93 -9 78 6 78 25 L78 678 C78 700 94 716 115 716 C130 716 144 708 151 695 L460 123 L460 682 C460 700 476 716 494 716 C512 716 526 700 526 682 L526 28 C526 7 511 -9 489 -9 L489 -9 Z " />
<glyph glyph-name="O" unicode="O" horiz-adv-x="551" d="M278 -9 C127 -9 50 103 50 244 L50 463 C50 601 114 716 278 716 C440 716 505 601 505 463 L505 244 C505 103 429 -9 278 -9 L278 -9 Z M278 652 C159 652 117 576 117 463 L117 244 C117 133 168 55 278 55 C388 55 438 133 438 244 L438 463 C438 576 395 652 278 652 L278 652 Z " />
<glyph glyph-name="P" unicode="P" horiz-adv-x="530" d="M271 267 L145 267 L145 26 C145 7 131 -9 112 -9 C95 -9 79 6 79 26 L79 664 C79 687 98 706 121 706 L271 706 C434 706 492 600 492 484 C492 344 406 267 271 267 L271 267 Z M145 642 L145 331 L271 331 C373 331 426 380 426 485 C426 563 397 642 271 642 L145 642 L145 642 Z " />
<glyph glyph-name="Q" unicode="Q" horiz-adv-x="551" d="M388 -180 C303 -180 253 -111 247 -8 C117 8 50 114 50 244 L50 463 C50 601 114 716 278 716 C440 716 505 601 505 463 L505 244 C505 115 440 11 314 -7 C316 -92 346 -122 402 -122 C408 -122 414 -121 420 -121 L431 -121 C450 -121 463 -132 463 -151 C463 -179 430 -180 388 -180 L388 -180 Z M278 652 C159 652 117 576 117 463 L117 244 C117 133 168 55 278 55 C388 55 438 133 438 244 L438 463 C438 576 395 652 278 652 L278 652 Z " />
<glyph glyph-name="R" unicode="R" horiz-adv-x="575" d="M511 509 C511 405 448 340 349 320 L518 42 L517 43 C519 38 521 30 521 22 C521 5 498 -8 485 -8 C474 -8 464 -2 458 7 L275 318 L145 318 L145 26 C145 7 130 -9 111 -9 C94 -9 78 6 78 26 L78 664 C78 687 97 706 118 706 L296 706 C459 706 511 607 511 509 L511 509 Z M444 509 C444 573 417 642 292 642 L145 642 L145 381 L298 381 C393 381 444 425 444 509 L444 509 Z " />
<glyph glyph-name="S" unicode="S" horiz-adv-x="486" d="M372 188 C372 256 337 284 310 298 C289 309 259 320 230 330 C142 360 47 391 47 524 C47 644 124 716 247 716 C296 716 413 705 413 654 C413 638 401 623 380 623 C369 623 356 627 345 632 C322 641 294 652 253 652 C183 652 117 624 117 529 C117 458 156 433 181 420 C203 409 233 397 261 388 C346 360 443 323 443 195 C443 65 351 -9 227 -9 C164 -9 46 9 46 58 C46 75 60 91 76 91 C82 91 98 85 113 80 C139 69 176 55 228 55 C324 55 372 104 372 188 L372 188 Z " />
<glyph glyph-name="T" unicode="T" horiz-adv-x="483" d="M210 24 L210 642 L64 642 C44 642 30 656 30 673 C30 688 45 706 64 706 L423 706 C441 706 457 692 457 673 C457 656 442 642 423 642 L276 642 L276 24 C276 6 262 -9 244 -9 C225 -9 210 6 210 24 L210 24 Z " />
<glyph glyph-name="U" unicode="U" horiz-adv-x="572" d="M507 228 C507 91 426 -9 289 -9 C148 -9 70 92 70 228 L70 680 C70 701 86 716 105 716 C123 716 137 700 137 680 L137 228 C137 126 186 55 289 55 C392 55 439 128 439 228 L439 680 C439 699 454 716 472 716 C491 716 507 699 507 680 L507 228 L507 228 Z " />
<glyph glyph-name="V" unicode="V" horiz-adv-x="529" d="M87 691 L267 99 L447 691 C451 706 467 716 479 716 C499 716 514 703 514 683 C514 678 513 670 513 669 L314 39 C305 12 292 -9 267 -9 C241 -9 229 11 221 39 L22 669 C21 672 20 679 20 683 C20 703 36 716 55 716 C66 716 81 703 87 691 L87 691 Z " />
<glyph glyph-name="W" unicode="W" horiz-adv-x="776" d="M517 33 L392 587 C355 420 303 198 266 32 C260 14 247 -9 219 -9 C194 -9 178 9 171 32 L18 680 L18 684 C18 702 39 712 57 712 C69 712 82 702 87 688 L221 110 L346 662 C354 695 364 716 392 716 C419 716 430 694 437 662 L564 109 L697 688 C702 702 712 712 724 712 C742 712 765 703 765 683 C765 682 765 677 764 674 L764 673 L612 32 C606 11 590 -9 565 -9 C539 -9 523 12 517 33 L517 33 Z " />
<glyph glyph-name="X" unicode="X" horiz-adv-x="500" d="M253 319 L83 16 C77 5 68 -9 51 -9 C35 -9 20 7 20 25 C20 32 22 39 25 43 L213 368 L40 665 L41 664 C38 670 36 678 36 684 C36 700 50 716 67 716 C80 716 94 701 103 684 L253 416 L402 684 L401 684 C409 698 422 716 440 716 C455 716 468 701 468 683 C468 676 466 669 464 664 L465 665 L293 368 L481 43 C483 39 485 32 485 25 C485 7 470 -9 455 -9 C440 -9 429 5 422 16 L253 319 L253 319 Z " />
<glyph glyph-name="Y" unicode="Y" horiz-adv-x="476" d="M241 -9 C221 -9 206 6 206 26 L206 279 L24 665 C22 670 20 677 20 682 C20 700 37 716 55 716 C64 716 74 712 79 703 L79 704 L241 353 L402 704 L402 703 C407 712 417 716 427 716 C444 716 460 700 460 682 C460 677 458 669 457 665 L274 275 L274 26 C274 7 260 -9 241 -9 L241 -9 Z " />
<glyph glyph-name="Z" unicode="Z" horiz-adv-x="484" d="M453 35 C453 15 439 1 420 1 L70 1 C49 1 34 17 34 38 C34 44 40 59 44 66 L366 640 L69 640 C50 640 36 654 36 672 C36 690 50 706 69 706 L415 706 C436 706 451 690 451 669 C451 661 445 649 442 642 L119 67 L420 67 C438 67 453 53 453 35 L453 35 Z " />
<glyph glyph-name="bracketleft" unicode="&#x5b;" horiz-adv-x="294" d="M264 -92 C264 -115 240 -123 220 -123 L116 -123 C99 -123 84 -108 84 -92 L84 772 C84 796 105 804 130 804 L234 804 C248 804 264 790 264 773 C264 750 241 743 221 743 L149 743 L149 -61 L221 -61 C243 -61 264 -68 264 -92 L264 -92 Z " />
<glyph glyph-name="backslash" unicode="&#x5c;" horiz-adv-x="280" d="M244 -24 L-19 718 L-21 723 C-23 740 -12 756 5 759 C19 761 33 754 38 740 L302 0 C305 -21 295 -41 278 -44 C263 -46 249 -38 244 -24 L244 -24 Z " />
<glyph glyph-name="bracketright" unicode="&#x5d;" horiz-adv-x="294" d="M211 -92 C211 -109 198 -123 181 -123 L76 -123 C54 -123 30 -115 30 -92 C30 -67 53 -61 75 -61 L146 -61 L146 743 L75 743 C54 743 30 749 30 773 C30 797 54 804 76 804 L181 804 C196 804 211 788 211 772 L211 -92 L211 -92 Z " />
<glyph glyph-name="asciicircum" unicode="&#x5e;" horiz-adv-x="326" d="M164 669 L49 527 C46 523 38 519 31 519 C17 519 7 526 7 537 C8 548 16 560 26 572 L139 711 C145 719 153 724 164 724 C174 724 182 719 188 711 L302 572 C312 560 319 548 320 537 L319 538 C319 527 310 519 297 519 C289 519 281 523 278 527 L164 669 L164 669 Z " />
<glyph glyph-name="underscore" unicode="&#x5f;" horiz-adv-x="600" d="M2 -179 L605 -179 C621 -179 636 -193 636 -212 C636 -229 622 -243 605 -243 L2 -243 C-17 -243 -31 -229 -31 -212 C-31 -193 -15 -179 2 -179 L2 -179 Z " />
<glyph glyph-name="grave" unicode="&#x60;" horiz-adv-x="197" d="M83 716 L169 625 C172 622 173 618 173 615 C173 599 160 587 147 587 C136 587 128 593 119 603 L38 691 C35 695 34 700 34 703 C34 718 47 730 58 730 C69 730 74 724 83 716 L83 716 Z " />
<glyph glyph-name="a" unicode="a" horiz-adv-x="482" d="M335 272 L335 341 C335 422 297 460 218 460 C181 460 160 452 137 438 C131 434 123 430 113 430 C98 430 92 444 91 456 C87 498 161 515 228 515 C351 515 400 445 400 314 L400 88 C400 62 409 49 427 49 C431 49 433 50 435 50 C450 50 457 36 457 23 C457 3 437 -4 419 -4 C388 -4 361 18 343 53 C301 13 254 -7 200 -7 C99 -7 50 53 50 140 L50 144 C50 240 107 290 224 290 C258 290 296 283 335 272 L335 272 Z M223 237 C131 237 114 194 114 143 L114 139 C114 87 137 49 213 49 C259 49 296 65 335 98 L335 218 C295 231 253 237 223 237 L223 237 Z " />
<glyph glyph-name="b" unicode="b" horiz-adv-x="485" d="M144 404 L144 147 C144 88 189 52 261 52 C340 52 376 96 376 168 L376 362 C376 424 344 461 270 461 C217 461 176 439 144 404 L144 404 Z M79 147 L79 701 C79 717 91 733 112 733 C133 733 144 717 144 701 L144 466 C189 498 235 515 290 515 C401 515 441 448 441 362 L441 168 C441 69 381 -7 261 -7 C145 -7 79 61 79 147 L79 147 Z " />
<glyph glyph-name="c" unicode="c" horiz-adv-x="393" d="M50 174 L50 330 C50 432 104 512 228 512 C273 512 363 500 363 457 C363 442 351 430 336 430 C330 430 326 431 321 432 L322 432 C297 445 273 457 236 457 C149 457 115 410 115 330 L115 174 C115 95 149 48 236 48 C275 48 298 60 322 72 L321 72 C328 74 332 75 336 75 C351 75 363 62 363 47 C363 5 273 -7 228 -7 C104 -7 50 72 50 174 L50 174 Z " />
<glyph glyph-name="d" unicode="d" horiz-adv-x="488" d="M215 511 C248 511 293 503 336 489 L336 701 C336 718 348 733 369 733 C390 733 401 718 401 701 L401 110 C401 79 407 60 431 42 C433 38 435 34 435 28 C435 11 421 0 407 0 C386 0 368 14 355 35 C308 11 256 -7 207 -7 C103 -7 50 69 50 179 L50 310 C50 429 89 511 215 511 L215 511 Z M336 110 L336 432 C297 448 250 457 225 457 C144 457 115 412 115 310 L115 179 C115 94 150 49 223 49 C259 49 302 62 340 81 C336 98 336 104 336 110 L336 110 Z " />
<glyph glyph-name="e" unicode="e" horiz-adv-x="435" d="M236 48 C282 48 310 61 346 77 C348 78 353 80 357 80 C373 80 385 66 385 52 C385 7 279 -7 226 -7 C114 -7 50 64 50 156 L50 348 C50 443 114 515 232 515 C341 515 394 452 394 355 C394 265 345 210 228 210 C195 210 154 213 115 221 L115 150 C115 89 156 48 236 48 L236 48 Z M330 355 C330 428 293 458 229 458 C157 458 115 418 115 356 L115 271 C158 265 211 263 232 263 C316 263 330 308 330 355 L330 355 Z " />
<glyph glyph-name="f" unicode="f" horiz-adv-x="329" d="M80 27 L80 546 C80 672 154 729 253 733 C269 734 339 734 339 694 C339 675 325 664 308 664 C299 664 290 665 285 666 C272 668 258 671 245 671 C179 671 145 617 145 554 L145 483 L261 483 C277 483 289 470 289 452 C289 436 277 423 261 423 L145 423 L145 27 C145 9 134 -4 113 -4 C92 -4 80 9 80 27 L80 27 Z " />
<glyph glyph-name="g" unicode="g" horiz-adv-x="493" d="M234 515 C280 515 331 502 373 477 C397 521 432 540 451 540 C468 540 481 528 481 511 C481 503 479 498 477 496 L468 486 C434 454 418 438 418 391 L418 327 C418 227 359 149 240 149 C210 149 181 155 155 165 C142 142 138 122 138 107 C138 65 176 55 202 55 L245 55 C358 55 443 11 443 -84 C443 -183 357 -243 240 -243 C128 -243 50 -188 50 -93 C50 -47 70 -8 107 25 C81 50 73 81 73 104 C73 126 82 157 117 188 C77 225 57 275 57 334 C57 437 115 515 234 515 L234 515 Z M354 390 C354 395 355 409 357 424 C321 446 283 459 244 459 C163 459 122 413 122 332 C122 258 157 208 240 208 C319 208 354 252 354 325 L354 390 L354 390 Z M204 -4 C185 -4 168 -2 155 1 C127 -21 114 -49 114 -82 C114 -149 158 -185 242 -185 C321 -185 378 -153 378 -86 C378 -28 335 -4 247 -4 L204 -4 L204 -4 Z " />
<glyph glyph-name="h" unicode="h" horiz-adv-x="507" d="M143 25 C143 7 130 -7 113 -7 C94 -7 80 7 80 25 L80 706 C80 722 93 739 111 739 C129 739 143 725 143 706 L143 463 C186 496 234 515 281 515 C386 515 433 447 433 351 L433 25 C433 7 419 -7 401 -7 C383 -7 368 7 368 25 L368 350 C368 418 340 456 271 456 C228 456 177 435 143 390 L143 25 L143 25 Z " />
<glyph glyph-name="i" unicode="i" horiz-adv-x="245" d="M165 681 C165 659 146 640 124 640 C100 640 82 659 82 681 C82 705 100 723 124 723 C146 723 165 705 165 681 L165 681 Z M156 25 C156 7 141 -7 124 -7 C105 -7 91 7 91 25 L91 479 C91 497 105 512 124 512 C141 512 156 497 156 479 L156 25 L156 25 Z " />
<glyph glyph-name="j" unicode="j" horiz-adv-x="245" d="M157 479 L157 -23 C157 -124 103 -194 18 -208 C10 -209 6 -208 0 -208 C-12 -208 -24 -200 -27 -188 C-32 -165 -15 -155 -2 -153 C58 -139 92 -107 92 -27 L92 479 C92 497 106 512 125 512 C142 512 157 497 157 479 L157 479 Z M166 681 C166 659 147 640 125 640 C101 640 82 659 82 681 C82 705 101 723 125 723 C147 723 166 705 166 681 L166 681 Z " />
<glyph glyph-name="k" unicode="k" horiz-adv-x="439" d="M145 700 L145 297 L345 504 C349 509 357 511 364 511 C381 511 394 498 394 481 C394 472 392 465 387 460 L231 301 L408 38 C411 34 414 24 414 19 C415 3 400 -7 383 -7 C371 -7 362 -2 356 8 L191 259 L145 211 L145 25 C145 7 130 -7 113 -7 C94 -7 80 7 80 25 L80 700 C80 718 94 733 113 733 C130 733 145 718 145 700 L145 700 Z " />
<glyph glyph-name="l" unicode="l" horiz-adv-x="228" d="M82 90 L82 700 C82 717 96 733 114 733 C132 733 146 718 146 700 L146 90 C146 67 151 50 164 36 C166 33 168 26 168 22 C168 5 156 -7 139 -7 C117 -7 82 4 82 90 L82 90 Z " />
<glyph glyph-name="m" unicode="m" horiz-adv-x="778" d="M125 466 C173 497 225 515 278 515 C331 515 368 495 396 459 C442 494 492 515 547 515 C653 515 710 447 710 347 L710 25 C710 7 700 -6 678 -6 C657 -6 645 7 645 25 L645 345 C645 407 613 457 544 457 C497 457 450 431 423 397 C426 382 428 366 428 347 L428 25 C428 7 418 -6 396 -6 C374 -6 363 7 363 25 L363 324 C363 402 350 457 270 457 C224 457 175 435 143 411 C145 399 146 388 146 375 L146 25 C146 7 135 -6 114 -6 C92 -6 81 7 81 25 L81 375 C81 410 77 431 63 451 C59 456 57 462 57 468 C57 485 71 497 86 497 C99 497 114 488 125 466 L125 466 Z " />
<glyph glyph-name="n" unicode="n" horiz-adv-x="509" d="M129 464 C178 498 230 513 279 513 C383 513 434 438 434 326 L434 25 C434 7 423 -6 402 -6 C381 -6 369 7 369 25 L369 326 C369 409 334 457 267 457 C225 457 183 438 145 409 C147 398 148 386 148 375 L148 25 C148 7 137 -6 116 -6 C94 -6 83 7 83 25 L83 375 C83 410 79 431 65 451 C61 456 59 462 59 468 C59 485 73 497 88 497 C101 497 118 486 129 464 L129 464 Z " />
<glyph glyph-name="o" unicode="o" horiz-adv-x="464" d="M235 -7 C115 -7 50 69 50 168 L50 340 C50 439 115 516 235 516 C356 516 420 439 420 340 L420 168 C420 69 356 -7 235 -7 L235 -7 Z M235 52 C315 52 355 96 355 168 L355 341 C355 413 315 458 235 458 C156 458 115 413 115 341 L115 168 C115 96 156 52 235 52 L235 52 Z " />
<glyph glyph-name="p" unicode="p" horiz-adv-x="478" d="M270 -6 C234 -6 189 2 148 15 L148 -184 C148 -201 136 -215 116 -215 C94 -215 83 -201 83 -184 L83 373 C83 408 79 429 65 449 C61 454 59 460 59 466 C59 483 73 495 88 495 C101 495 115 483 126 467 C176 494 228 515 279 515 C382 515 434 439 434 328 L434 194 C434 76 395 -6 270 -6 L270 -6 Z M148 373 L148 72 C184 56 232 48 260 48 C340 48 369 93 369 194 L369 328 C369 413 335 459 262 459 C226 459 182 443 143 419 C146 404 148 389 148 373 L148 373 Z " />
<glyph glyph-name="q" unicode="q" horiz-adv-x="485" d="M347 100 L347 357 C347 419 303 457 231 457 C152 457 115 411 115 336 L115 173 C115 96 145 48 224 48 C269 48 313 64 347 100 L347 100 Z M412 357 L412 -184 C412 -201 401 -215 380 -215 C358 -215 347 -201 347 -184 L347 37 C305 10 259 -6 208 -6 C88 -6 50 71 50 173 L50 336 C50 437 111 515 231 515 C346 515 412 445 412 357 L412 357 Z " />
<glyph glyph-name="r" unicode="r" horiz-adv-x="337" d="M149 373 L149 25 C149 7 134 -7 117 -7 C98 -7 84 7 84 25 L84 373 C84 408 80 429 66 449 C62 454 60 460 60 466 C60 483 74 495 90 495 C103 495 118 482 129 464 C176 494 235 511 272 511 C307 511 318 497 318 479 C318 459 303 444 286 445 C241 446 203 446 148 405 L148 404 C148 404 149 403 149 373 L149 373 Z " />
<glyph glyph-name="s" unicode="s" horiz-adv-x="406" d="M59 374 C59 459 114 515 218 515 C269 515 347 503 347 465 C347 449 335 436 318 436 C312 436 308 438 303 440 C280 451 260 460 221 460 C153 460 122 432 122 379 C122 343 136 325 175 304 C254 265 362 255 362 135 C362 47 306 -7 197 -7 C146 -7 52 3 52 44 C52 59 64 74 83 74 C85 74 86 74 89 73 C119 61 152 48 197 48 C258 48 299 73 299 132 C299 174 280 193 258 205 C180 244 59 254 59 374 L59 374 Z " />
<glyph glyph-name="t" unicode="t" horiz-adv-x="321" d="M81 202 L81 633 C81 650 92 665 113 665 C134 665 145 650 145 633 L145 483 L261 483 C277 483 290 470 290 452 C290 436 277 423 261 423 L145 423 L145 209 C145 98 157 57 238 57 C245 57 251 58 258 58 C277 58 303 55 303 28 C303 0 277 -3 253 -3 C115 -3 81 65 81 202 L81 202 Z " />
<glyph glyph-name="u" unicode="u" horiz-adv-x="509" d="M366 120 L366 480 C366 498 377 512 399 512 C420 512 431 498 431 480 L431 120 C431 70 436 62 442 55 C448 48 457 37 457 27 C457 11 443 -1 427 -1 C410 -1 397 12 384 32 C336 4 283 -7 236 -7 C132 -7 79 68 79 179 L79 480 C79 498 91 512 112 512 C133 512 144 498 144 480 L144 179 C144 97 180 49 247 49 C289 49 331 63 368 87 C367 97 366 107 366 120 L366 120 Z " />
<glyph glyph-name="v" unicode="v" horiz-adv-x="430" d="M406 471 L266 35 C256 5 243 -7 220 -7 C197 -7 184 6 175 34 L32 474 C25 494 43 512 64 512 C75 512 87 508 92 491 L220 78 L346 491 C349 501 359 513 375 512 C392 511 407 497 407 479 C407 476 407 474 406 471 L406 471 Z " />
<glyph glyph-name="w" unicode="w" horiz-adv-x="655" d="M636 477 L517 33 C509 7 499 -7 473 -7 C456 -7 439 4 433 22 L334 411 C305 294 268 138 234 22 C229 4 214 -7 193 -7 C170 -7 155 9 148 33 L28 479 L28 481 C28 497 42 512 61 512 C73 512 86 502 91 489 L194 86 C233 228 264 358 295 481 C300 498 313 512 334 512 C353 512 366 498 371 481 C394 383 421 281 473 86 L575 489 C578 502 592 512 605 512 C622 512 636 498 636 479 L636 477 L636 477 Z " />
<glyph glyph-name="x" unicode="x" horiz-adv-x="431" d="M184 259 L46 466 C43 470 42 475 42 481 C42 499 59 512 73 512 C89 512 96 503 105 489 L220 311 L335 489 C344 503 351 512 367 512 C381 512 398 499 398 481 C398 475 397 470 394 466 L256 259 L404 40 C406 37 407 31 407 27 C407 8 393 -7 374 -7 C358 -7 352 0 341 16 L218 205 L90 9 C83 -2 75 -7 64 -7 C45 -7 30 6 30 25 C30 30 31 33 34 38 L184 259 L184 259 Z " />
<glyph glyph-name="y" unicode="y" horiz-adv-x="412" d="M399 469 L273 60 C227 -86 181 -202 58 -202 C38 -202 24 -189 24 -171 C24 -156 35 -141 54 -140 C125 -137 154 -103 187 -5 L23 471 C20 474 20 479 20 482 C20 500 35 512 53 512 C65 512 77 503 82 491 L218 76 C254 203 302 363 338 491 C344 502 356 512 368 512 C384 512 400 499 400 479 C400 474 399 471 399 469 L399 469 Z " />
<glyph glyph-name="z" unicode="z" horiz-adv-x="384" d="M367 471 C367 464 363 451 360 446 L98 59 L339 59 C356 59 369 45 369 29 C369 12 356 0 339 0 L54 0 C36 0 20 15 20 35 C20 40 22 51 26 57 L290 446 L60 446 C43 446 30 459 30 475 C30 493 43 505 60 505 L333 505 C352 505 367 493 367 471 L367 471 Z " />
<glyph glyph-name="braceleft" unicode="&#x7b;" horiz-adv-x="417" d="M69 210 C50 210 37 220 37 239 C37 258 50 269 69 269 C126 269 153 299 157 368 C158 394 161 427 162 455 L168 557 C174 628 237 675 322 675 C346 675 374 671 374 639 C374 611 353 613 340 615 C328 616 314 618 311 618 C273 618 235 592 232 545 C230 488 226 430 224 374 C220 315 193 267 140 239 C193 212 220 163 224 104 L232 -66 C234 -112 272 -139 310 -139 C319 -139 332 -138 340 -137 C353 -135 374 -133 374 -160 C374 -192 346 -196 322 -196 C236 -196 173 -151 168 -79 L157 110 C153 180 126 210 69 210 L69 210 Z " />
<glyph glyph-name="bar" unicode="&#x7c;" horiz-adv-x="227" d="M85 -216 L85 732 C85 747 98 761 114 761 C131 761 143 747 143 732 L143 -216 C143 -231 131 -244 114 -244 C98 -244 85 -231 85 -216 L85 -216 Z " />
<glyph glyph-name="braceright" unicode="&#x7d;" horiz-adv-x="417" d="M352 210 C295 210 268 180 264 110 C261 48 256 -16 253 -79 C248 -151 186 -196 100 -196 C74 -196 47 -192 47 -160 C47 -133 68 -135 81 -137 C90 -138 103 -139 111 -139 C150 -139 188 -112 190 -66 C192 -10 196 48 198 104 C201 165 228 212 281 239 C228 267 201 314 198 374 L190 545 C187 592 149 618 110 618 C107 618 94 616 81 615 C68 613 47 611 47 639 C47 671 74 675 100 675 C185 675 247 628 253 557 L259 455 L264 368 C268 299 295 269 352 269 C371 269 384 258 384 239 C384 220 371 210 352 210 L352 210 Z " />
<glyph glyph-name="asciitilde" unicode="&#x7e;" horiz-adv-x="454" d="M391 353 C391 314 338 288 297 285 L298 286 C269 286 246 296 225 308 C210 315 194 322 168 326 C149 326 132 315 120 304 C113 298 107 292 97 292 C81 292 69 302 67 319 C67 359 112 390 161 390 C183 390 211 378 230 369 C244 362 264 353 283 350 C314 350 328 361 339 371 C345 376 355 383 363 385 C378 384 391 370 391 353 L391 353 Z " />
<glyph glyph-name="exclamdown" unicode="&#xa1;" horiz-adv-x="227" d="M80 -186 L91 297 C91 311 101 323 114 323 C126 323 137 311 137 297 C140 137 151 -26 148 -186 C148 -203 133 -219 114 -219 C96 -219 80 -203 80 -186 L80 -186 Z M162 458 C162 432 142 412 116 412 C90 412 68 432 68 458 C68 484 90 507 116 507 C142 507 162 484 162 458 L162 458 Z " />
<glyph glyph-name="cent" unicode="&#xa2;" horiz-adv-x="500" d="M233 -36 L233 22 C125 34 78 108 78 203 L78 307 C78 401 125 475 233 486 L233 537 C233 548 242 557 253 557 C263 557 271 548 271 537 L271 487 C320 483 388 468 388 432 C388 418 377 406 361 406 C355 406 351 407 347 408 L348 408 C328 417 309 426 271 431 L271 78 C309 82 327 92 348 102 L347 102 C353 104 357 105 361 105 C377 105 388 92 388 78 C388 42 320 27 271 22 L271 -36 C271 -46 263 -54 253 -54 C243 -54 233 -46 233 -36 L233 -36 Z M143 203 C143 137 168 94 233 80 L233 429 C168 416 143 373 143 307 L143 203 L143 203 Z " />
<glyph glyph-name="yen" unicode="&#xa5;" horiz-adv-x="476" d="M78 363 L166 363 C122 459 69 569 24 665 C22 670 20 677 20 682 C20 700 37 716 55 716 C64 716 74 712 79 703 L79 704 L241 353 L402 704 L402 703 C407 712 417 716 427 716 C444 716 460 700 460 682 C460 677 458 669 457 665 L314 363 L403 363 C419 363 435 349 435 332 C435 316 420 302 403 302 L287 302 L274 275 L274 230 L403 230 C419 230 435 217 435 199 C435 183 420 170 403 170 L274 170 L274 26 C274 7 260 -9 241 -9 C221 -9 206 6 206 26 L206 170 L78 170 C60 170 45 183 45 199 C45 217 62 230 78 230 L206 230 L206 279 L194 302 L78 302 C60 302 45 316 45 332 C45 349 62 363 78 363 L78 363 Z " />
<glyph glyph-name="dieresis" unicode="&#xa8;" horiz-adv-x="403" d="M332 646 C332 622 314 604 292 604 C270 604 250 623 250 646 C250 667 270 687 292 687 C314 687 332 668 332 646 L332 646 Z M159 646 C159 622 141 604 118 604 C96 604 78 623 78 646 C78 667 96 687 118 687 C141 687 159 668 159 646 L159 646 Z " />
<glyph glyph-name="copyright" unicode="&#xa9;" horiz-adv-x="740" d="M678 313 C678 125 571 -8 374 -8 C177 -8 68 125 68 313 C68 502 177 635 374 635 C571 635 678 502 678 313 L678 313 Z M632 313 C632 475 542 589 374 589 C206 589 114 475 114 313 C114 151 206 38 374 38 C542 38 632 151 632 313 L632 313 Z M244 282 L244 344 C244 424 286 487 383 487 C419 487 488 478 488 444 C488 434 480 425 469 425 L462 425 C441 437 419 447 390 447 C320 447 292 409 292 344 L292 282 C292 218 320 181 390 181 C420 181 436 189 455 197 L452 197 L459 199 C464 201 467 202 469 202 C480 202 488 192 488 181 C488 149 419 140 383 140 C286 140 244 202 244 282 L244 282 Z " />
<glyph glyph-name="guillemotleft" unicode="&#xab;" horiz-adv-x="431" d="M123 256 L269 40 C270 37 272 31 272 27 C272 8 259 -7 240 -7 C224 -7 218 0 207 16 C155 96 101 175 49 254 L201 484 C210 499 217 508 233 508 C247 508 263 495 263 477 C263 471 263 465 260 462 L123 256 L123 256 Z M287 254 L385 105 C387 102 388 96 388 90 C388 74 372 60 357 60 C342 60 335 68 326 83 L212 254 L326 426 C335 440 342 450 357 450 C372 450 388 436 388 419 C388 413 388 407 385 404 L287 254 L287 254 Z " />
<glyph glyph-name="registered" unicode="&#xae;" horiz-adv-x="700" d="M638 425 C638 255 539 135 354 135 C169 135 69 255 69 425 C69 602 169 726 354 726 C539 726 638 602 638 425 L638 425 Z M592 425 C592 575 509 680 354 680 C198 680 115 575 115 425 C115 282 198 181 354 181 C509 181 592 282 592 425 L592 425 Z M459 489 C459 449 438 420 403 404 L473 297 C487 276 438 270 429 284 L356 398 L297 398 L297 295 C297 286 285 278 273 278 C262 278 251 285 251 295 L251 556 C251 570 264 583 277 583 L356 583 C432 583 459 536 459 489 L459 489 Z M413 489 C413 513 403 538 354 538 L297 538 L297 442 L357 442 C395 442 413 460 413 489 L413 489 Z " />
<glyph glyph-name="macron" unicode="&#xaf;" horiz-adv-x="403" d="M359 644 C359 627 347 615 331 615 L76 615 C59 615 46 627 46 644 C46 660 59 674 76 674 L331 674 C347 674 359 660 359 644 L359 644 Z " />
<glyph glyph-name="degree" unicode="&#xb0;" horiz-adv-x="392" d="M198 447 C110 447 61 506 61 581 C61 657 109 717 198 717 C287 717 334 657 334 581 C334 506 287 447 198 447 L198 447 Z M198 495 C254 495 280 525 280 583 C280 638 254 669 198 669 C142 669 115 638 115 583 C115 524 142 495 198 495 L198 495 Z " />
<glyph glyph-name="plusminus" unicode="&#xb1;" horiz-adv-x="500" d="M220 172 L220 354 L49 354 C31 354 17 368 17 385 C17 404 33 418 49 418 L220 418 L220 599 C220 615 234 631 253 631 C270 631 284 617 284 599 L284 418 L456 418 C472 418 488 404 488 385 C488 368 473 354 456 354 L284 354 L284 172 C284 154 270 140 253 140 C234 140 220 155 220 172 L220 172 Z M49 65 L456 65 C472 65 488 51 488 33 C488 15 473 1 456 1 L49 1 C31 1 17 15 17 33 C17 51 33 65 49 65 L49 65 Z " />
<glyph glyph-name="twosuperior" unicode="&#xb2;" horiz-adv-x="250" d="M227 411 C227 398 216 390 205 390 L43 390 C27 390 16 399 16 413 C16 418 17 426 21 434 C40 479 76 514 109 546 C119 557 142 580 152 592 C165 604 178 625 178 649 C178 684 159 708 122 708 C107 708 92 704 78 699 L65 693 C60 690 52 686 46 686 C35 686 21 695 21 707 C21 718 24 721 27 724 C61 746 92 754 122 754 C188 754 225 710 225 655 C225 612 210 583 191 560 C182 549 170 538 159 527 L149 517 C121 491 94 464 78 436 L205 436 C216 436 227 425 227 411 L227 411 Z " />
<glyph glyph-name="threesuperior" unicode="&#xb3;" horiz-adv-x="250" d="M210 699 L132 599 C184 595 224 558 224 499 C224 448 194 385 120 385 C100 385 20 390 20 424 C20 438 30 449 44 449 C46 449 51 447 59 443 C71 436 86 429 111 429 C161 429 176 466 176 498 C176 541 149 558 114 558 C108 558 101 557 97 555 L94 553 C93 552 90 552 86 552 C69 552 58 573 69 588 L151 696 L52 696 C37 696 26 705 26 718 C26 733 37 745 52 745 L189 745 C204 745 213 734 213 716 C213 709 213 702 210 699 L210 699 Z " />
<glyph glyph-name="acute" unicode="&#xb4;" horiz-adv-x="276" d="M88 625 L175 716 C181 722 188 730 198 730 C212 730 223 716 223 703 C223 699 222 694 220 691 L138 604 C128 594 122 587 111 587 C96 587 84 600 84 615 C84 619 85 621 88 625 L88 625 Z " />
<glyph glyph-name="periodcentered" unicode="&#xb7;" horiz-adv-x="255" d="M172 273 C172 246 152 226 125 226 C100 226 78 246 78 273 C78 298 100 320 125 320 C152 320 172 298 172 273 L172 273 Z " />
<glyph glyph-name="cedilla" unicode="&#xb8;" horiz-adv-x="300" d="M240 -132 C240 -193 171 -228 108 -216 C81 -211 54 -195 65 -179 C70 -171 78 -173 92 -176 L111 -180 C164 -191 189 -158 189 -129 C189 -95 154 -89 121 -87 C91 -85 88 -81 90 -62 L103 6 L138 6 L128 -55 C209 -55 240 -91 240 -132 L240 -132 Z " />
<glyph glyph-name="onesuperior" unicode="&#xb9;" horiz-adv-x="250" d="M127 407 L127 685 L75 649 C67 644 60 640 52 640 C39 640 28 650 28 661 C28 670 33 677 41 683 L138 744 C144 748 148 749 152 749 C166 749 177 738 177 722 L177 407 C177 396 166 385 153 385 C138 385 127 396 127 407 L127 407 Z " />
<glyph glyph-name="ordmasculine" unicode="&#xba;" horiz-adv-x="384" d="M194 355 C103 355 56 415 56 494 L56 575 C56 655 103 716 194 716 C285 716 331 655 331 575 L331 494 C331 415 285 355 194 355 L194 355 Z M194 667 C132 667 109 631 109 571 L109 491 C109 436 135 403 194 403 C252 403 278 436 278 491 L278 571 C278 631 255 667 194 667 L194 667 Z " />
<glyph glyph-name="guillemotright" unicode="&#xbb;" horiz-adv-x="431" d="M166 40 L312 256 L175 462 C172 467 171 472 171 477 C171 495 188 508 203 508 C218 508 225 499 235 484 L387 254 L229 16 C217 0 211 -7 196 -7 C175 -7 162 8 162 27 C162 31 163 35 166 40 L166 40 Z M51 105 L149 254 L51 404 C48 409 47 414 47 419 C47 436 63 450 78 450 C94 450 101 440 110 426 L223 254 L110 83 C101 68 94 60 78 60 C63 60 47 74 47 90 C47 95 48 100 51 105 L51 105 Z " />
<glyph glyph-name="questiondown" unicode="&#xbf;" horiz-adv-x="462" d="M205 246 C210 257 211 274 211 289 C211 307 226 323 245 323 C263 323 277 307 277 289 C277 276 276 262 272 252 C257 209 227 176 198 143 C186 131 175 118 165 104 C136 70 107 21 107 -31 C107 -109 153 -170 242 -170 C280 -170 315 -161 342 -150 C349 -147 361 -141 369 -135 C381 -128 391 -122 400 -122 C415 -122 431 -134 431 -152 C431 -167 421 -176 408 -185 C359 -215 302 -229 241 -229 C115 -229 42 -146 42 -42 C42 41 73 95 115 142 C135 167 138 168 148 177 C170 199 193 221 205 246 L205 246 Z M197 458 C197 484 218 507 244 507 C270 507 291 484 291 458 C291 432 270 412 244 412 C218 412 197 432 197 458 L197 458 Z " />
<glyph glyph-name="Agrave" unicode="&#xc0;" horiz-adv-x="549" d="M142 163 L97 15 C91 3 76 -9 65 -9 C46 -9 30 4 30 24 C30 27 31 34 32 37 L231 667 C239 695 251 716 277 716 C302 716 315 694 324 667 L523 37 C523 35 524 28 524 24 C524 4 509 -9 489 -9 C477 -9 461 1 457 15 L411 163 L142 163 L142 163 Z M277 607 L161 228 L392 228 L277 607 L277 607 Z M215 916 L301 825 C304 822 305 818 305 815 C305 799 292 787 279 787 C268 787 260 793 251 803 L170 891 C167 895 166 900 166 903 C166 918 179 930 190 930 C201 930 206 924 215 916 L215 916 Z " />
<glyph glyph-name="Aacute" unicode="&#xc1;" horiz-adv-x="549" d="M142 163 L97 15 C91 3 76 -9 65 -9 C46 -9 30 4 30 24 C30 27 31 34 32 37 L231 667 C239 695 251 716 277 716 C302 716 315 694 324 667 L523 37 C523 35 524 28 524 24 C524 4 509 -9 489 -9 C477 -9 461 1 457 15 L411 163 L142 163 L142 163 Z M277 607 L161 228 L392 228 L277 607 L277 607 Z M253 825 L340 916 C346 922 353 930 363 930 C377 930 388 916 388 903 C388 899 387 894 385 891 L303 804 C293 794 287 787 276 787 C261 787 249 800 249 815 C249 819 250 821 253 825 L253 825 Z " />
<glyph glyph-name="Acircumflex" unicode="&#xc2;" horiz-adv-x="549" d="M142 163 L97 15 C91 3 76 -9 65 -9 C46 -9 30 4 30 24 C30 27 31 34 32 37 L231 667 C239 695 251 716 277 716 C302 716 315 694 324 667 L523 37 C523 35 524 28 524 24 C524 4 509 -9 489 -9 C477 -9 461 1 457 15 L411 163 L142 163 L142 163 Z M277 607 L161 228 L392 228 L277 607 L277 607 Z M276 853 L193 785 C192 783 184 782 180 782 C171 782 162 792 162 801 C162 808 170 819 178 825 L259 894 C263 897 269 901 276 901 C282 901 289 898 293 894 L374 825 C381 819 390 808 390 801 C390 792 381 782 371 782 C367 782 360 783 359 785 L276 853 L276 853 Z " />
<glyph glyph-name="Atilde" unicode="&#xc3;" horiz-adv-x="549" d="M142 163 L97 15 C91 3 76 -9 65 -9 C46 -9 30 4 30 24 C30 27 31 34 32 37 L231 667 C239 695 251 716 277 716 C302 716 315 694 324 667 L523 37 C523 35 524 28 524 24 C524 4 509 -9 489 -9 C477 -9 461 1 457 15 L411 163 L142 163 L142 163 Z M277 607 L161 228 L392 228 L277 607 L277 607 Z M409 856 C409 825 366 802 332 802 C310 802 290 811 273 820 C260 826 251 835 229 835 C217 835 203 832 184 817 C177 811 173 808 165 808 C153 808 142 815 142 831 C142 859 179 887 217 887 C237 887 255 879 275 868 C292 859 304 855 320 854 C347 854 358 862 368 871 C373 875 381 883 389 883 C397 883 409 873 409 856 L409 856 Z " />
<glyph glyph-name="Adieresis" unicode="&#xc4;" horiz-adv-x="549" d="M142 163 L97 15 C91 3 76 -9 65 -9 C46 -9 30 4 30 24 C30 27 31 34 32 37 L231 667 C239 695 251 716 277 716 C302 716 315 694 324 667 L523 37 C523 35 524 28 524 24 C524 4 509 -9 489 -9 C477 -9 461 1 457 15 L411 163 L142 163 L142 163 Z M277 607 L161 228 L392 228 L277 607 L277 607 Z M403 846 C403 822 385 804 363 804 C341 804 321 823 321 846 C321 867 341 887 363 887 C385 887 403 868 403 846 L403 846 Z M230 846 C230 822 212 804 189 804 C167 804 149 823 149 846 C149 867 167 887 189 887 C212 887 230 868 230 846 L230 846 Z " />
<glyph glyph-name="Aring" unicode="&#xc5;" horiz-adv-x="549" d="M382 734 C382 696 362 663 331 643 L523 37 C523 35 524 28 524 24 C524 4 509 -9 489 -9 C477 -9 461 1 457 15 L411 163 L142 163 L97 15 C91 3 76 -9 65 -9 C46 -9 30 4 30 24 C30 27 31 34 32 37 L224 643 C192 664 172 697 172 734 C172 791 219 839 278 839 C336 839 382 792 382 734 L382 734 Z M277 607 L161 228 L392 228 L277 607 L277 607 Z M346 734 C346 771 316 804 278 804 C240 804 208 771 208 734 C208 696 240 665 278 665 C316 665 346 695 346 734 L346 734 Z " />
<glyph glyph-name="AE" unicode="&#xc6;" horiz-adv-x="722" d="M419 0 C389 0 362 9 362 40 L362 162 L141 162 L96 14 C92 0 76 -10 65 -10 C44 -10 29 3 29 23 C29 26 30 33 31 36 L228 656 C237 684 249 705 274 705 L649 705 C667 705 682 690 682 671 C682 654 667 641 649 641 L428 641 L428 386 L630 386 C646 386 661 372 661 354 C661 336 647 322 630 322 L428 322 L428 64 L659 64 C677 64 692 50 692 34 C692 14 678 0 659 0 L419 0 L419 0 Z M362 641 L304 641 C288 641 287 637 283 624 L161 227 L362 227 L362 641 L362 641 Z " />
<glyph glyph-name="Ccedilla" unicode="&#xc7;" horiz-adv-x="482" d="M363 -132 C363 -196 288 -228 230 -216 C205 -211 178 -197 187 -178 L187 -179 C192 -171 201 -173 215 -176 L233 -180 C286 -192 312 -158 312 -129 C312 -96 278 -89 244 -87 C214 -85 211 -81 213 -62 L223 -5 C105 17 50 111 50 244 L50 463 C50 616 122 716 272 716 C363 716 446 679 446 636 C446 620 434 608 417 608 C408 608 403 612 395 617 C359 641 330 657 276 657 C157 657 117 580 117 463 L117 244 C117 127 157 51 276 51 C319 51 352 61 394 90 C404 97 410 100 417 100 C434 100 446 87 446 71 C446 28 361 -8 273 -8 L258 -8 L251 -55 C330 -55 363 -90 363 -132 L363 -132 Z " />
<glyph glyph-name="Egrave" unicode="&#xc8;" horiz-adv-x="474" d="M440 35 C440 15 425 1 407 1 L136 1 C106 1 79 10 79 41 L79 665 C79 686 96 706 120 706 L397 706 C415 706 429 691 429 672 C429 655 415 642 397 642 L145 642 L145 387 L377 387 C394 387 409 373 409 355 C409 337 395 323 377 323 L145 323 L145 65 L407 65 C424 65 440 51 440 35 L440 35 Z M217 916 L303 825 C306 822 307 818 307 815 C307 799 294 787 281 787 C270 787 262 793 253 803 L172 891 C169 895 168 900 168 903 C168 918 181 930 192 930 C203 930 208 924 217 916 L217 916 Z " />
<glyph glyph-name="Eacute" unicode="&#xc9;" horiz-adv-x="474" d="M440 35 C440 15 425 1 407 1 L136 1 C106 1 79 10 79 41 L79 665 C79 686 96 706 120 706 L397 706 C415 706 429 691 429 672 C429 655 415 642 397 642 L145 642 L145 387 L377 387 C394 387 409 373 409 355 C409 337 395 323 377 323 L145 323 L145 65 L407 65 C424 65 440 51 440 35 L440 35 Z M213 825 L300 916 C306 922 313 930 323 930 C337 930 348 916 348 903 C348 899 347 894 345 891 L263 804 C253 794 247 787 236 787 C221 787 209 800 209 815 C209 819 210 821 213 825 L213 825 Z " />
<glyph glyph-name="Ecircumflex" unicode="&#xca;" horiz-adv-x="474" d="M440 35 C440 15 425 1 407 1 L136 1 C106 1 79 10 79 41 L79 665 C79 686 96 706 120 706 L397 706 C415 706 429 691 429 672 C429 655 415 642 397 642 L145 642 L145 387 L377 387 C394 387 409 373 409 355 C409 337 395 323 377 323 L145 323 L145 65 L407 65 C424 65 440 51 440 35 L440 35 Z M263 853 L180 785 C179 783 171 782 167 782 C158 782 149 792 149 801 C149 808 157 819 165 825 L246 894 C250 897 256 901 263 901 C269 901 276 898 280 894 L361 825 C368 819 377 808 377 801 C377 792 368 782 358 782 C354 782 347 783 346 785 L263 853 L263 853 Z " />
<glyph glyph-name="Edieresis" unicode="&#xcb;" horiz-adv-x="474" d="M440 35 C440 15 425 1 407 1 L136 1 C106 1 79 10 79 41 L79 665 C79 686 96 706 120 706 L397 706 C415 706 429 691 429 672 C429 655 415 642 397 642 L145 642 L145 387 L377 387 C394 387 409 373 409 355 C409 337 395 323 377 323 L145 323 L145 65 L407 65 C424 65 440 51 440 35 L440 35 Z M389 846 C389 822 371 804 349 804 C327 804 307 823 307 846 C307 867 327 887 349 887 C371 887 389 868 389 846 L389 846 Z M216 846 C216 822 198 804 175 804 C153 804 135 823 135 846 C135 867 153 887 175 887 C198 887 216 868 216 846 L216 846 Z " />
<glyph glyph-name="Igrave" unicode="&#xcc;" horiz-adv-x="227" d="M80 24 L80 683 C80 700 96 716 114 716 C133 716 147 700 147 683 L147 24 C147 6 133 -9 114 -9 C96 -9 80 6 80 24 L80 24 Z M67 916 L153 825 C156 822 157 818 157 815 C157 799 144 787 131 787 C120 787 112 793 103 803 L22 891 C19 895 18 900 18 903 C18 918 31 930 42 930 C53 930 58 924 67 916 L67 916 Z " />
<glyph glyph-name="Iacute" unicode="&#xcd;" horiz-adv-x="227" d="M80 24 L80 683 C80 700 96 716 114 716 C133 716 147 700 147 683 L147 24 C147 6 133 -9 114 -9 C96 -9 80 6 80 24 L80 24 Z M76 825 L163 916 C169 922 176 930 186 930 C200 930 211 916 211 903 C211 899 210 894 208 891 L126 804 C116 794 110 787 99 787 C84 787 72 800 72 815 C72 819 73 821 76 825 L76 825 Z " />
<glyph glyph-name="Icircumflex" unicode="&#xce;" horiz-adv-x="227" d="M80 24 L80 683 C80 700 96 716 114 716 C133 716 147 700 147 683 L147 24 C147 6 133 -9 114 -9 C96 -9 80 6 80 24 L80 24 Z M116 853 L33 785 C32 783 24 782 20 782 C11 782 2 792 2 801 C2 808 10 819 18 825 L99 894 C103 897 109 901 116 901 C122 901 129 898 133 894 L214 825 C221 819 230 808 230 801 C230 792 221 782 211 782 C207 782 200 783 199 785 L116 853 L116 853 Z " />
<glyph glyph-name="Idieresis" unicode="&#xcf;" horiz-adv-x="227" d="M80 24 L80 683 C80 700 96 716 114 716 C133 716 147 700 147 683 L147 24 C147 6 133 -9 114 -9 C96 -9 80 6 80 24 L80 24 Z M242 846 C242 822 224 804 202 804 C180 804 160 823 160 846 C160 867 180 887 202 887 C224 887 242 868 242 846 L242 846 Z M69 846 C69 822 51 804 28 804 C6 804 -12 823 -12 846 C-12 867 6 887 28 887 C51 887 69 868 69 846 L69 846 Z " />
<glyph glyph-name="Eth" unicode="&#xd0;" horiz-adv-x="574" d="M528 263 C528 127 460 1 257 1 L141 1 C119 1 99 19 99 42 L99 325 L52 325 C35 325 22 337 22 354 C22 370 35 384 52 384 L99 384 L99 665 C99 688 119 707 141 707 L257 707 C459 707 528 586 528 454 L528 263 L528 263 Z M335 354 C335 337 323 325 307 325 L166 325 L166 65 L274 65 C414 65 462 153 462 263 L462 454 C462 559 412 643 274 643 L166 643 L166 384 L307 384 C323 384 335 370 335 354 L335 354 Z " />
<glyph glyph-name="Ntilde" unicode="&#xd1;" horiz-adv-x="600" d="M489 -9 C476 -9 460 -2 454 10 L145 581 L145 25 C145 6 130 -9 111 -9 C93 -9 78 6 78 25 L78 678 C78 700 94 716 115 716 C130 716 144 708 151 695 L460 123 L460 682 C460 700 476 716 494 716 C512 716 526 700 526 682 L526 28 C526 7 511 -9 489 -9 L489 -9 Z M435 856 C435 825 392 802 358 802 C336 802 316 811 299 820 C286 826 277 835 255 835 C243 835 229 832 210 817 C203 811 199 808 191 808 C179 808 168 815 168 831 C168 859 205 887 243 887 C263 887 281 879 301 868 C318 859 330 855 346 854 C373 854 384 862 394 871 C399 875 407 883 415 883 C423 883 435 873 435 856 L435 856 Z " />
<glyph glyph-name="Ograve" unicode="&#xd2;" horiz-adv-x="551" d="M278 -9 C127 -9 50 103 50 244 L50 463 C50 601 114 716 278 716 C440 716 505 601 505 463 L505 244 C505 103 429 -9 278 -9 L278 -9 Z M278 652 C159 652 117 576 117 463 L117 244 C117 133 168 55 278 55 C388 55 438 133 438 244 L438 463 C438 576 395 652 278 652 L278 652 Z M235 916 L321 825 C324 822 325 818 325 815 C325 799 312 787 299 787 C288 787 280 793 271 803 L190 891 C187 895 186 900 186 903 C186 918 199 930 210 930 C221 930 226 924 235 916 L235 916 Z " />
<glyph glyph-name="Oacute" unicode="&#xd3;" horiz-adv-x="551" d="M278 -9 C127 -9 50 103 50 244 L50 463 C50 601 114 716 278 716 C440 716 505 601 505 463 L505 244 C505 103 429 -9 278 -9 L278 -9 Z M278 652 C159 652 117 576 117 463 L117 244 C117 133 168 55 278 55 C388 55 438 133 438 244 L438 463 C438 576 395 652 278 652 L278 652 Z M240 825 L327 916 C333 922 340 930 350 930 C364 930 375 916 375 903 C375 899 374 894 372 891 L290 804 C280 794 274 787 263 787 C248 787 236 800 236 815 C236 819 237 821 240 825 L240 825 Z " />
<glyph glyph-name="Ocircumflex" unicode="&#xd4;" horiz-adv-x="551" d="M278 -9 C127 -9 50 103 50 244 L50 463 C50 601 114 716 278 716 C440 716 505 601 505 463 L505 244 C505 103 429 -9 278 -9 L278 -9 Z M278 652 C159 652 117 576 117 463 L117 244 C117 133 168 55 278 55 C388 55 438 133 438 244 L438 463 C438 576 395 652 278 652 L278 652 Z M277 853 L194 785 C193 783 185 782 181 782 C172 782 163 792 163 801 C163 808 171 819 179 825 L260 894 C264 897 270 901 277 901 C283 901 290 898 294 894 L375 825 C382 819 391 808 391 801 C391 792 382 782 372 782 C368 782 361 783 360 785 L277 853 L277 853 Z " />
<glyph glyph-name="Otilde" unicode="&#xd5;" horiz-adv-x="551" d="M278 -9 C127 -9 50 103 50 244 L50 463 C50 601 114 716 278 716 C440 716 505 601 505 463 L505 244 C505 103 429 -9 278 -9 L278 -9 Z M278 652 C159 652 117 576 117 463 L117 244 C117 133 168 55 278 55 C388 55 438 133 438 244 L438 463 C438 576 395 652 278 652 L278 652 Z M410 856 C410 825 367 802 333 802 C311 802 291 811 274 820 C261 826 252 835 230 835 C218 835 204 832 185 817 C178 811 174 808 166 808 C154 808 143 815 143 831 C143 859 180 887 218 887 C238 887 256 879 276 868 C293 859 305 855 321 854 C348 854 359 862 369 871 C374 875 382 883 390 883 C398 883 410 873 410 856 L410 856 Z " />
<glyph glyph-name="Odieresis" unicode="&#xd6;" horiz-adv-x="551" d="M278 -9 C127 -9 50 103 50 244 L50 463 C50 601 114 716 278 716 C440 716 505 601 505 463 L505 244 C505 103 429 -9 278 -9 L278 -9 Z M278 652 C159 652 117 576 117 463 L117 244 C117 133 168 55 278 55 C388 55 438 133 438 244 L438 463 C438 576 395 652 278 652 L278 652 Z M404 846 C404 822 386 804 364 804 C342 804 322 823 322 846 C322 867 342 887 364 887 C386 887 404 868 404 846 L404 846 Z M231 846 C231 822 213 804 190 804 C168 804 150 823 150 846 C150 867 168 887 190 887 C213 887 231 868 231 846 L231 846 Z " />
<glyph glyph-name="multiply" unicode="&#xd7;" horiz-adv-x="500" d="M426 482 L299 355 L426 227 C432 220 436 213 436 203 C436 189 419 172 404 172 C396 172 385 175 380 181 L253 309 L124 181 C119 175 110 172 101 172 C86 172 69 190 69 203 C69 212 72 220 79 227 L207 355 L79 482 C72 488 69 498 69 506 C69 519 88 538 101 538 C110 538 118 535 125 528 L253 401 L380 528 C388 536 396 538 404 538 C416 538 436 523 436 506 C436 498 432 488 426 482 L426 482 Z " />
<glyph glyph-name="Oslash" unicode="&#xd8;" horiz-adv-x="551" d="M29 29 L82 104 C61 148 50 195 50 244 L50 463 C50 601 114 716 278 716 C357 716 414 687 455 639 L498 699 C504 708 516 710 525 704 C533 698 536 687 529 677 L476 602 C496 561 505 513 505 463 L505 244 C505 103 429 -9 278 -9 C204 -9 145 19 103 68 L60 7 C54 -2 42 -4 33 2 C25 8 21 19 29 29 L29 29 Z M278 652 C159 652 116 576 116 463 L116 244 C116 226 119 203 127 169 L415 580 C388 625 345 652 278 652 L278 652 Z M438 463 C438 483 435 509 430 536 L143 126 C170 82 216 55 278 55 C388 55 438 133 438 244 L438 463 L438 463 Z " />
<glyph glyph-name="Ugrave" unicode="&#xd9;" horiz-adv-x="572" d="M507 228 C507 91 426 -9 289 -9 C148 -9 70 92 70 228 L70 680 C70 701 86 716 105 716 C123 716 137 700 137 680 L137 228 C137 126 186 55 289 55 C392 55 439 128 439 228 L439 680 C439 699 454 716 472 716 C491 716 507 699 507 680 L507 228 L507 228 Z M232 916 L318 825 C321 822 322 818 322 815 C322 799 309 787 296 787 C285 787 277 793 268 803 L187 891 C184 895 183 900 183 903 C183 918 196 930 207 930 C218 930 223 924 232 916 L232 916 Z " />
<glyph glyph-name="Uacute" unicode="&#xda;" horiz-adv-x="572" d="M507 228 C507 91 426 -9 289 -9 C148 -9 70 92 70 228 L70 680 C70 701 86 716 105 716 C123 716 137 700 137 680 L137 228 C137 126 186 55 289 55 C392 55 439 128 439 228 L439 680 C439 699 454 716 472 716 C491 716 507 699 507 680 L507 228 L507 228 Z M257 825 L344 916 C350 922 357 930 367 930 C381 930 392 916 392 903 C392 899 391 894 389 891 L307 804 C297 794 291 787 280 787 C265 787 253 800 253 815 C253 819 254 821 257 825 L257 825 Z " />
<glyph glyph-name="Ucircumflex" unicode="&#xdb;" horiz-adv-x="572" d="M507 228 C507 91 426 -9 289 -9 C148 -9 70 92 70 228 L70 680 C70 701 86 716 105 716 C123 716 137 700 137 680 L137 228 C137 126 186 55 289 55 C392 55 439 128 439 228 L439 680 C439 699 454 716 472 716 C491 716 507 699 507 680 L507 228 L507 228 Z M288 853 L205 785 C204 783 196 782 192 782 C183 782 174 792 174 801 C174 808 182 819 190 825 L271 894 C275 897 281 901 288 901 C294 901 301 898 305 894 L386 825 C393 819 402 808 402 801 C402 792 393 782 383 782 C379 782 372 783 371 785 L288 853 L288 853 Z " />
<glyph glyph-name="Udieresis" unicode="&#xdc;" horiz-adv-x="572" d="M507 228 C507 91 426 -9 289 -9 C148 -9 70 92 70 228 L70 680 C70 701 86 716 105 716 C123 716 137 700 137 680 L137 228 C137 126 186 55 289 55 C392 55 439 128 439 228 L439 680 C439 699 454 716 472 716 C491 716 507 699 507 680 L507 228 L507 228 Z M414 846 C414 822 396 804 374 804 C352 804 332 823 332 846 C332 867 352 887 374 887 C396 887 414 868 414 846 L414 846 Z M241 846 C241 822 223 804 200 804 C178 804 160 823 160 846 C160 867 178 887 200 887 C223 887 241 868 241 846 L241 846 Z " />
<glyph glyph-name="Yacute" unicode="&#xdd;" horiz-adv-x="476" d="M241 -9 C221 -9 206 6 206 26 L206 279 L24 665 C22 670 20 677 20 682 C20 700 37 716 55 716 C64 716 74 712 79 703 L79 704 L241 353 L402 704 L402 703 C407 712 417 716 427 716 C444 716 460 700 460 682 C460 677 458 669 457 665 L274 275 L274 26 C274 7 260 -9 241 -9 L241 -9 Z M174 825 L261 916 C267 922 274 930 284 930 C298 930 309 916 309 903 C309 899 308 894 306 891 L224 804 C214 794 208 787 197 787 C182 787 170 800 170 815 C170 819 171 821 174 825 L174 825 Z " />
<glyph glyph-name="Thorn" unicode="&#xde;" horiz-adv-x="530" d="M79 24 L79 683 C79 700 94 716 112 716 C131 716 145 700 145 683 L145 584 L271 584 C434 584 492 477 492 362 C492 222 406 144 271 144 L145 144 L145 24 C145 6 131 -9 112 -9 C94 -9 79 6 79 24 L79 24 Z M145 520 L145 208 L271 208 C373 208 426 257 426 363 C426 440 397 520 271 520 L145 520 L145 520 Z " />
<glyph glyph-name="germandbls" unicode="&#xdf;" horiz-adv-x="544" d="M516 161 C516 60 454 -3 341 -3 C318 -3 216 -2 216 36 C216 49 224 66 250 66 C260 66 273 64 287 61 C304 58 321 55 340 55 C390 55 451 83 451 159 C451 248 368 291 309 309 C273 320 232 333 232 373 C232 403 249 419 267 428 C334 461 390 482 390 554 C390 624 339 660 267 660 C180 660 143 610 143 505 L143 -34 C143 -52 128 -66 111 -66 C92 -66 78 -52 78 -34 L78 502 C78 638 147 719 273 719 C376 719 453 664 453 563 C453 493 418 447 369 425 C344 414 291 401 298 376 C303 363 316 359 369 341 C452 310 516 256 516 161 L516 161 Z " />
<glyph glyph-name="agrave" unicode="&#xe0;" horiz-adv-x="482" d="M335 272 L335 341 C335 422 297 460 218 460 C181 460 160 452 137 438 C131 434 123 430 113 430 C98 430 92 444 91 456 C87 498 161 515 228 515 C351 515 400 445 400 314 L400 88 C400 62 409 49 427 49 C431 49 433 50 435 50 C450 50 457 36 457 23 C457 3 437 -4 419 -4 C388 -4 361 18 343 53 C301 13 254 -7 200 -7 C99 -7 50 53 50 140 L50 144 C50 240 107 290 224 290 C258 290 296 283 335 272 L335 272 Z M223 237 C131 237 114 194 114 143 L114 139 C114 87 137 49 213 49 C259 49 296 65 335 98 L335 218 C295 231 253 237 223 237 L223 237 Z M201 716 L287 625 C290 622 291 618 291 615 C291 599 278 587 265 587 C254 587 246 593 237 603 L156 691 C153 695 152 700 152 703 C152 718 165 730 176 730 C187 730 192 724 201 716 L201 716 Z " />
<glyph glyph-name="aacute" unicode="&#xe1;" horiz-adv-x="482" d="M335 272 L335 341 C335 422 297 460 218 460 C181 460 160 452 137 438 C131 434 123 430 113 430 C98 430 92 444 91 456 C87 498 161 515 228 515 C351 515 400 445 400 314 L400 88 C400 62 409 49 427 49 C431 49 433 50 435 50 C450 50 457 36 457 23 C457 3 437 -4 419 -4 C388 -4 361 18 343 53 C301 13 254 -7 200 -7 C99 -7 50 53 50 140 L50 144 C50 240 107 290 224 290 C258 290 296 283 335 272 L335 272 Z M223 237 C131 237 114 194 114 143 L114 139 C114 87 137 49 213 49 C259 49 296 65 335 98 L335 218 C295 231 253 237 223 237 L223 237 Z M206 625 L293 716 C299 722 306 730 316 730 C330 730 341 716 341 703 C341 699 340 694 338 691 L256 604 C246 594 240 587 229 587 C214 587 202 600 202 615 C202 619 203 621 206 625 L206 625 Z " />
<glyph glyph-name="acircumflex" unicode="&#xe2;" horiz-adv-x="482" d="M335 272 L335 341 C335 422 297 460 218 460 C181 460 160 452 137 438 C131 434 123 430 113 430 C98 430 92 444 91 456 C87 498 161 515 228 515 C351 515 400 445 400 314 L400 88 C400 62 409 49 427 49 C431 49 433 50 435 50 C450 50 457 36 457 23 C457 3 437 -4 419 -4 C388 -4 361 18 343 53 C301 13 254 -7 200 -7 C99 -7 50 53 50 140 L50 144 C50 240 107 290 224 290 C258 290 296 283 335 272 L335 272 Z M223 237 C131 237 114 194 114 143 L114 139 C114 87 137 49 213 49 C259 49 296 65 335 98 L335 218 C295 231 253 237 223 237 L223 237 Z M243 653 L160 585 C159 583 151 582 147 582 C138 582 129 592 129 601 C129 608 137 619 145 625 L226 694 C230 697 236 701 243 701 C249 701 256 698 260 694 L341 625 C348 619 357 608 357 601 C357 592 348 582 338 582 C334 582 327 583 326 585 L243 653 L243 653 Z " />
<glyph glyph-name="atilde" unicode="&#xe3;" horiz-adv-x="482" d="M335 272 L335 341 C335 422 297 460 218 460 C181 460 160 452 137 438 C131 434 123 430 113 430 C98 430 92 444 91 456 C87 498 161 515 228 515 C351 515 400 445 400 314 L400 88 C400 62 409 49 427 49 C431 49 433 50 435 50 C450 50 457 36 457 23 C457 3 437 -4 419 -4 C388 -4 361 18 343 53 C301 13 254 -7 200 -7 C99 -7 50 53 50 140 L50 144 C50 240 107 290 224 290 C258 290 296 283 335 272 L335 272 Z M223 237 C131 237 114 194 114 143 L114 139 C114 87 137 49 213 49 C259 49 296 65 335 98 L335 218 C295 231 253 237 223 237 L223 237 Z M376 656 C376 625 333 602 299 602 C277 602 257 611 240 620 C227 626 218 635 196 635 C184 635 170 632 151 617 C144 611 140 608 132 608 C120 608 109 615 109 631 C109 659 146 687 184 687 C204 687 222 679 242 668 C259 659 271 655 287 654 C314 654 325 662 335 671 C340 675 348 683 356 683 C364 683 376 673 376 656 L376 656 Z " />
<glyph glyph-name="adieresis" unicode="&#xe4;" horiz-adv-x="482" d="M335 272 L335 341 C335 422 297 460 218 460 C181 460 160 452 137 438 C131 434 123 430 113 430 C98 430 92 444 91 456 C87 498 161 515 228 515 C351 515 400 445 400 314 L400 88 C400 62 409 49 427 49 C431 49 433 50 435 50 C450 50 457 36 457 23 C457 3 437 -4 419 -4 C388 -4 361 18 343 53 C301 13 254 -7 200 -7 C99 -7 50 53 50 140 L50 144 C50 240 107 290 224 290 C258 290 296 283 335 272 L335 272 Z M223 237 C131 237 114 194 114 143 L114 139 C114 87 137 49 213 49 C259 49 296 65 335 98 L335 218 C295 231 253 237 223 237 L223 237 Z M369 646 C369 622 351 604 329 604 C307 604 287 623 287 646 C287 667 307 687 329 687 C351 687 369 668 369 646 L369 646 Z M196 646 C196 622 178 604 155 604 C133 604 115 623 115 646 C115 667 133 687 155 687 C178 687 196 668 196 646 L196 646 Z " />
<glyph glyph-name="aring" unicode="&#xe5;" horiz-adv-x="482" d="M335 272 L335 341 C335 422 297 460 218 460 C181 460 160 452 137 438 C131 434 123 430 113 430 C98 430 92 444 91 456 C87 498 161 515 228 515 C351 515 400 445 400 314 L400 88 C400 62 409 49 427 49 C431 49 433 50 435 50 C450 50 457 36 457 23 C457 3 437 -4 419 -4 C388 -4 361 18 343 53 C301 13 254 -7 200 -7 C99 -7 50 53 50 140 L50 144 C50 240 107 290 224 290 C258 290 296 283 335 272 L335 272 Z M223 237 C131 237 114 194 114 143 L114 139 C114 87 137 49 213 49 C259 49 296 65 335 98 L335 218 C295 231 253 237 223 237 L223 237 Z M338 651 C338 599 297 558 245 558 C192 558 150 599 150 651 C150 703 192 745 245 745 C297 745 338 703 338 651 L338 651 Z M307 651 C307 686 280 715 245 715 C210 715 182 686 182 651 C182 616 210 589 245 589 C280 589 307 616 307 651 L307 651 Z " />
<glyph glyph-name="ae" unicode="&#xe6;" horiz-adv-x="712" d="M512 210 C479 210 438 213 398 221 L398 150 C398 89 440 48 519 48 C565 48 593 61 629 77 C633 79 637 80 641 80 C656 80 668 66 668 52 C668 7 561 -7 513 -7 C447 -7 399 23 372 70 C321 18 266 -7 199 -7 C98 -7 48 53 48 140 L48 144 C48 240 106 290 222 290 C256 290 294 283 334 272 L334 341 C334 422 295 460 216 460 C179 460 158 451 136 438 C134 438 133 437 130 435 C126 433 117 430 111 430 C96 430 90 444 89 456 C85 498 159 515 226 515 C295 515 340 482 367 419 C395 477 446 515 519 515 C623 515 678 452 678 355 C678 265 628 210 512 210 L512 210 Z M614 355 C614 428 577 458 513 458 C441 458 398 418 398 356 L398 271 C442 266 494 263 515 263 C598 263 614 308 614 355 L614 355 Z M334 98 L334 218 C293 231 251 237 221 237 C129 237 112 194 112 143 L112 139 C112 87 136 49 211 49 C257 49 294 65 334 98 L334 98 Z " />
<glyph glyph-name="ccedilla" unicode="&#xe7;" horiz-adv-x="393" d="M333 -139 C333 -179 299 -218 229 -218 C210 -218 203 -218 199 -217 C172 -214 146 -198 156 -179 L156 -180 C161 -172 169 -173 183 -177 L202 -181 C255 -192 281 -159 281 -132 C281 -102 258 -90 212 -88 C186 -87 178 -81 181 -63 L191 -5 C93 11 50 85 50 174 L50 330 C50 432 104 512 228 512 C273 512 363 500 363 457 C363 442 351 430 336 430 C330 430 326 431 321 432 L322 432 C297 445 273 457 236 457 C149 457 115 410 115 330 L115 174 C115 95 149 48 236 48 C275 48 298 60 322 72 L321 72 C328 74 332 75 336 75 C351 75 363 62 363 47 C363 6 276 -7 227 -8 L219 -56 C304 -57 333 -90 333 -139 L333 -139 Z " />
<glyph glyph-name="egrave" unicode="&#xe8;" horiz-adv-x="435" d="M236 48 C282 48 310 61 346 77 C348 78 353 80 357 80 C373 80 385 66 385 52 C385 7 279 -7 226 -7 C114 -7 50 64 50 156 L50 348 C50 443 114 515 232 515 C341 515 394 452 394 355 C394 265 345 210 228 210 C195 210 154 213 115 221 L115 150 C115 89 156 48 236 48 L236 48 Z M330 355 C330 428 293 458 229 458 C157 458 115 418 115 356 L115 271 C158 265 211 263 232 263 C316 263 330 308 330 355 L330 355 Z M158 716 L244 625 C247 622 248 618 248 615 C248 599 235 587 222 587 C211 587 203 593 194 603 L113 691 C110 695 109 700 109 703 C109 718 122 730 133 730 C144 730 149 724 158 716 L158 716 Z " />
<glyph glyph-name="eacute" unicode="&#xe9;" horiz-adv-x="435" d="M236 48 C282 48 310 61 346 77 C348 78 353 80 357 80 C373 80 385 66 385 52 C385 7 279 -7 226 -7 C114 -7 50 64 50 156 L50 348 C50 443 114 515 232 515 C341 515 394 452 394 355 C394 265 345 210 228 210 C195 210 154 213 115 221 L115 150 C115 89 156 48 236 48 L236 48 Z M330 355 C330 428 293 458 229 458 C157 458 115 418 115 356 L115 271 C158 265 211 263 232 263 C316 263 330 308 330 355 L330 355 Z M190 625 L277 716 C283 722 290 730 300 730 C314 730 325 716 325 703 C325 699 324 694 322 691 L240 604 C230 594 224 587 213 587 C198 587 186 600 186 615 C186 619 187 621 190 625 L190 625 Z " />
<glyph glyph-name="ecircumflex" unicode="&#xea;" horiz-adv-x="435" d="M236 48 C282 48 310 61 346 77 C348 78 353 80 357 80 C373 80 385 66 385 52 C385 7 279 -7 226 -7 C114 -7 50 64 50 156 L50 348 C50 443 114 515 232 515 C341 515 394 452 394 355 C394 265 345 210 228 210 C195 210 154 213 115 221 L115 150 C115 89 156 48 236 48 L236 48 Z M330 355 C330 428 293 458 229 458 C157 458 115 418 115 356 L115 271 C158 265 211 263 232 263 C316 263 330 308 330 355 L330 355 Z M219 653 L136 585 C135 583 127 582 123 582 C114 582 105 592 105 601 C105 608 113 619 121 625 L202 694 C206 697 212 701 219 701 C225 701 232 698 236 694 L317 625 C324 619 333 608 333 601 C333 592 324 582 314 582 C310 582 303 583 302 585 L219 653 L219 653 Z " />
<glyph glyph-name="edieresis" unicode="&#xeb;" horiz-adv-x="435" d="M236 48 C282 48 310 61 346 77 C348 78 353 80 357 80 C373 80 385 66 385 52 C385 7 279 -7 226 -7 C114 -7 50 64 50 156 L50 348 C50 443 114 515 232 515 C341 515 394 452 394 355 C394 265 345 210 228 210 C195 210 154 213 115 221 L115 150 C115 89 156 48 236 48 L236 48 Z M330 355 C330 428 293 458 229 458 C157 458 115 418 115 356 L115 271 C158 265 211 263 232 263 C316 263 330 308 330 355 L330 355 Z M346 646 C346 622 328 604 306 604 C284 604 264 623 264 646 C264 667 284 687 306 687 C328 687 346 668 346 646 L346 646 Z M173 646 C173 622 155 604 132 604 C110 604 92 623 92 646 C92 667 110 687 132 687 C155 687 173 668 173 646 L173 646 Z " />
<glyph glyph-name="igrave" unicode="&#xec;" horiz-adv-x="245" d="M156 25 C156 7 141 -7 124 -7 C105 -7 91 7 91 25 L91 479 C91 497 105 512 124 512 C141 512 156 497 156 479 L156 25 L156 25 Z M71 716 L157 625 C160 622 161 618 161 615 C161 599 148 587 135 587 C124 587 116 593 107 603 L26 691 C23 695 22 700 22 703 C22 718 35 730 46 730 C57 730 62 724 71 716 L71 716 Z " />
<glyph glyph-name="iacute" unicode="&#xed;" horiz-adv-x="245" d="M156 25 C156 7 141 -7 124 -7 C105 -7 91 7 91 25 L91 479 C91 497 105 512 124 512 C141 512 156 497 156 479 L156 25 L156 25 Z M93 625 L180 716 C186 722 193 730 203 730 C217 730 228 716 228 703 C228 699 227 694 225 691 L143 604 C133 594 127 587 116 587 C101 587 89 600 89 615 C89 619 90 621 93 625 L93 625 Z " />
<glyph glyph-name="icircumflex" unicode="&#xee;" horiz-adv-x="245" d="M156 25 C156 7 141 -7 124 -7 C105 -7 91 7 91 25 L91 479 C91 497 105 512 124 512 C141 512 156 497 156 479 L156 25 L156 25 Z M125 653 L42 585 C41 583 33 582 29 582 C20 582 11 592 11 601 C11 608 19 619 27 625 L108 694 C112 697 118 701 125 701 C131 701 138 698 142 694 L223 625 C230 619 239 608 239 601 C239 592 230 582 220 582 C216 582 209 583 208 585 L125 653 L125 653 Z " />
<glyph glyph-name="idieresis" unicode="&#xef;" horiz-adv-x="245" d="M156 25 C156 7 141 -7 124 -7 C105 -7 91 7 91 25 L91 479 C91 497 105 512 124 512 C141 512 156 497 156 479 L156 25 L156 25 Z M251 646 C251 622 233 604 211 604 C189 604 169 623 169 646 C169 667 189 687 211 687 C233 687 251 668 251 646 L251 646 Z M78 646 C78 622 60 604 37 604 C15 604 -3 623 -3 646 C-3 667 15 687 37 687 C60 687 78 668 78 646 L78 646 Z " />
<glyph glyph-name="eth" unicode="&#xf0;" horiz-adv-x="500" d="M478 677 C499 676 506 644 487 634 L418 598 C445 531 461 440 461 328 C461 56 384 -9 262 -9 C111 -9 45 86 45 210 C45 335 109 436 230 436 C268 436 335 424 392 379 C392 466 382 527 367 569 L292 529 C282 524 275 523 272 523 C262 523 249 535 251 547 C252 554 256 562 263 566 L345 610 C306 652 266 659 230 663 C219 664 205 666 207 689 C208 708 217 716 257 716 C313 716 361 691 398 638 L459 671 C467 675 472 677 478 677 L478 677 Z M394 282 L394 314 C358 352 285 377 237 377 C158 377 110 316 110 215 C110 123 150 52 257 52 C361 52 394 121 394 282 L394 282 Z " />
<glyph glyph-name="ntilde" unicode="&#xf1;" horiz-adv-x="509" d="M129 464 C178 498 230 513 279 513 C383 513 434 438 434 326 L434 25 C434 7 423 -6 402 -6 C381 -6 369 7 369 25 L369 326 C369 409 334 457 267 457 C225 457 183 438 145 409 C147 398 148 386 148 375 L148 25 C148 7 137 -6 116 -6 C94 -6 83 7 83 25 L83 375 C83 410 79 431 65 451 C61 456 59 462 59 468 C59 485 73 497 88 497 C101 497 118 486 129 464 L129 464 Z M378 656 C378 625 335 602 301 602 C279 602 259 611 242 620 C229 626 220 635 198 635 C186 635 172 632 153 617 C146 611 142 608 134 608 C122 608 111 615 111 631 C111 659 148 687 186 687 C206 687 224 679 244 668 C261 659 273 655 289 654 C316 654 327 662 337 671 C342 675 350 683 358 683 C366 683 378 673 378 656 L378 656 Z " />
<glyph glyph-name="ograve" unicode="&#xf2;" horiz-adv-x="464" d="M235 -7 C115 -7 50 69 50 168 L50 340 C50 439 115 516 235 516 C356 516 420 439 420 340 L420 168 C420 69 356 -7 235 -7 L235 -7 Z M235 52 C315 52 355 96 355 168 L355 341 C355 413 315 458 235 458 C156 458 115 413 115 341 L115 168 C115 96 156 52 235 52 L235 52 Z M185 716 L271 625 C274 622 275 618 275 615 C275 599 262 587 249 587 C238 587 230 593 221 603 L140 691 C137 695 136 700 136 703 C136 718 149 730 160 730 C171 730 176 724 185 716 L185 716 Z " />
<glyph glyph-name="oacute" unicode="&#xf3;" horiz-adv-x="464" d="M235 -7 C115 -7 50 69 50 168 L50 340 C50 439 115 516 235 516 C356 516 420 439 420 340 L420 168 C420 69 356 -7 235 -7 L235 -7 Z M235 52 C315 52 355 96 355 168 L355 341 C355 413 315 458 235 458 C156 458 115 413 115 341 L115 168 C115 96 156 52 235 52 L235 52 Z M167 625 L254 716 C260 722 267 730 277 730 C291 730 302 716 302 703 C302 699 301 694 299 691 L217 604 C207 594 201 587 190 587 C175 587 163 600 163 615 C163 619 164 621 167 625 L167 625 Z " />
<glyph glyph-name="ocircumflex" unicode="&#xf4;" horiz-adv-x="464" d="M235 -7 C115 -7 50 69 50 168 L50 340 C50 439 115 516 235 516 C356 516 420 439 420 340 L420 168 C420 69 356 -7 235 -7 L235 -7 Z M235 52 C315 52 355 96 355 168 L355 341 C355 413 315 458 235 458 C156 458 115 413 115 341 L115 168 C115 96 156 52 235 52 L235 52 Z M234 653 L151 585 C150 583 142 582 138 582 C129 582 120 592 120 601 C120 608 128 619 136 625 L217 694 C221 697 227 701 234 701 C240 701 247 698 251 694 L332 625 C339 619 348 608 348 601 C348 592 339 582 329 582 C325 582 318 583 317 585 L234 653 L234 653 Z " />
<glyph glyph-name="otilde" unicode="&#xf5;" horiz-adv-x="464" d="M235 -7 C115 -7 50 69 50 168 L50 340 C50 439 115 516 235 516 C356 516 420 439 420 340 L420 168 C420 69 356 -7 235 -7 L235 -7 Z M235 52 C315 52 355 96 355 168 L355 341 C355 413 315 458 235 458 C156 458 115 413 115 341 L115 168 C115 96 156 52 235 52 L235 52 Z M367 656 C367 625 324 602 290 602 C268 602 248 611 231 620 C218 626 209 635 187 635 C175 635 161 632 142 617 C135 611 131 608 123 608 C111 608 100 615 100 631 C100 659 137 687 175 687 C195 687 213 679 233 668 C250 659 262 655 278 654 C305 654 316 662 326 671 C331 675 339 683 347 683 C355 683 367 673 367 656 L367 656 Z " />
<glyph glyph-name="odieresis" unicode="&#xf6;" horiz-adv-x="464" d="M235 -7 C115 -7 50 69 50 168 L50 340 C50 439 115 516 235 516 C356 516 420 439 420 340 L420 168 C420 69 356 -7 235 -7 L235 -7 Z M235 52 C315 52 355 96 355 168 L355 341 C355 413 315 458 235 458 C156 458 115 413 115 341 L115 168 C115 96 156 52 235 52 L235 52 Z M360 646 C360 622 342 604 320 604 C298 604 278 623 278 646 C278 667 298 687 320 687 C342 687 360 668 360 646 L360 646 Z M187 646 C187 622 169 604 146 604 C124 604 106 623 106 646 C106 667 124 687 146 687 C169 687 187 668 187 646 L187 646 Z " />
<glyph glyph-name="oslash" unicode="&#xf8;" horiz-adv-x="464" d="M44 10 L81 63 C60 94 50 131 50 168 L50 340 C50 439 115 516 235 516 C287 516 331 499 366 471 L399 518 C405 527 417 530 425 523 C435 515 437 505 431 496 L392 441 C411 411 420 376 420 340 L420 168 C420 69 356 -7 235 -7 C184 -7 141 8 107 33 L76 -12 C70 -21 57 -23 49 -16 C41 -11 40 2 44 10 L44 10 Z M115 168 C115 163 117 141 120 121 L329 419 C307 444 275 458 235 458 C156 458 115 413 115 341 L115 168 L115 168 Z M235 52 C315 52 355 96 355 168 L355 341 C355 347 355 352 351 381 L144 85 C166 63 197 52 235 52 L235 52 Z " />
<glyph glyph-name="ugrave" unicode="&#xf9;" horiz-adv-x="509" d="M366 120 L366 480 C366 498 377 512 399 512 C420 512 431 498 431 480 L431 120 C431 70 436 62 442 55 C448 48 457 37 457 27 C457 11 443 -1 427 -1 C410 -1 397 12 384 32 C336 4 283 -7 236 -7 C132 -7 79 68 79 179 L79 480 C79 498 91 512 112 512 C133 512 144 498 144 480 L144 179 C144 97 180 49 247 49 C289 49 331 63 368 87 C367 97 366 107 366 120 L366 120 Z M194 716 L280 625 C283 622 284 618 284 615 C284 599 271 587 258 587 C247 587 239 593 230 603 L149 691 C146 695 145 700 145 703 C145 718 158 730 169 730 C180 730 185 724 194 716 L194 716 Z " />
<glyph glyph-name="uacute" unicode="&#xfa;" horiz-adv-x="509" d="M366 120 L366 480 C366 498 377 512 399 512 C420 512 431 498 431 480 L431 120 C431 70 436 62 442 55 C448 48 457 37 457 27 C457 11 443 -1 427 -1 C410 -1 397 12 384 32 C336 4 283 -7 236 -7 C132 -7 79 68 79 179 L79 480 C79 498 91 512 112 512 C133 512 144 498 144 480 L144 179 C144 97 180 49 247 49 C289 49 331 63 368 87 C367 97 366 107 366 120 L366 120 Z M223 625 L310 716 C316 722 323 730 333 730 C347 730 358 716 358 703 C358 699 357 694 355 691 L273 604 C263 594 257 587 246 587 C231 587 219 600 219 615 C219 619 220 621 223 625 L223 625 Z " />
<glyph glyph-name="ucircumflex" unicode="&#xfb;" horiz-adv-x="509" d="M366 120 L366 480 C366 498 377 512 399 512 C420 512 431 498 431 480 L431 120 C431 70 436 62 442 55 C448 48 457 37 457 27 C457 11 443 -1 427 -1 C410 -1 397 12 384 32 C336 4 283 -7 236 -7 C132 -7 79 68 79 179 L79 480 C79 498 91 512 112 512 C133 512 144 498 144 480 L144 179 C144 97 180 49 247 49 C289 49 331 63 368 87 C367 97 366 107 366 120 L366 120 Z M256 653 L173 585 C172 583 164 582 160 582 C151 582 142 592 142 601 C142 608 150 619 158 625 L239 694 C243 697 249 701 256 701 C262 701 269 698 273 694 L354 625 C361 619 370 608 370 601 C370 592 361 582 351 582 C347 582 340 583 339 585 L256 653 L256 653 Z " />
<glyph glyph-name="udieresis" unicode="&#xfc;" horiz-adv-x="509" d="M366 120 L366 480 C366 498 377 512 399 512 C420 512 431 498 431 480 L431 120 C431 70 436 62 442 55 C448 48 457 37 457 27 C457 11 443 -1 427 -1 C410 -1 397 12 384 32 C336 4 283 -7 236 -7 C132 -7 79 68 79 179 L79 480 C79 498 91 512 112 512 C133 512 144 498 144 480 L144 179 C144 97 180 49 247 49 C289 49 331 63 368 87 C367 97 366 107 366 120 L366 120 Z M383 646 C383 622 365 604 343 604 C321 604 301 623 301 646 C301 667 321 687 343 687 C365 687 383 668 383 646 L383 646 Z M210 646 C210 622 192 604 169 604 C147 604 129 623 129 646 C129 667 147 687 169 687 C192 687 210 668 210 646 L210 646 Z " />
<glyph glyph-name="yacute" unicode="&#xfd;" horiz-adv-x="412" d="M399 469 L273 60 C227 -86 181 -202 58 -202 C38 -202 24 -189 24 -171 C24 -156 35 -141 54 -140 C125 -137 154 -103 187 -5 L23 471 C20 474 20 479 20 482 C20 500 35 512 53 512 C65 512 77 503 82 491 L218 76 C254 203 302 363 338 491 C344 502 356 512 368 512 C384 512 400 499 400 479 C400 474 399 471 399 469 L399 469 Z M189 625 L276 716 C282 722 289 730 299 730 C313 730 324 716 324 703 C324 699 323 694 321 691 L239 604 C229 594 223 587 212 587 C197 587 185 600 185 615 C185 619 186 621 189 625 L189 625 Z " />
<glyph glyph-name="thorn" unicode="&#xfe;" horiz-adv-x="485" d="M144 404 L144 126 C175 91 216 70 270 70 C344 70 376 107 376 168 L376 362 C376 424 344 461 270 461 C217 461 176 439 144 404 L144 404 Z M79 -186 L79 693 C79 709 91 725 112 725 C133 725 144 709 144 693 L144 466 C189 498 235 515 290 515 C401 515 441 448 441 362 L441 168 C441 82 401 15 290 15 C235 15 189 33 144 64 L144 -186 C144 -202 133 -217 112 -217 C91 -217 79 -202 79 -186 L79 -186 Z " />
<glyph glyph-name="ydieresis" unicode="&#xff;" horiz-adv-x="412" d="M399 469 L273 60 C227 -86 181 -202 58 -202 C38 -202 24 -189 24 -171 C24 -156 35 -141 54 -140 C125 -137 154 -103 187 -5 L23 471 C20 474 20 479 20 482 C20 500 35 512 53 512 C65 512 77 503 82 491 L218 76 C254 203 302 363 338 491 C344 502 356 512 368 512 C384 512 400 499 400 479 C400 474 399 471 399 469 L399 469 Z M334 646 C334 622 316 604 294 604 C272 604 252 623 252 646 C252 667 272 687 294 687 C316 687 334 668 334 646 L334 646 Z M161 646 C161 622 143 604 120 604 C98 604 80 623 80 646 C80 667 98 687 120 687 C143 687 161 668 161 646 L161 646 Z " />
<glyph glyph-name="Amacron" unicode="&#x100;" horiz-adv-x="549" d="M142 163 L97 15 C91 3 76 -9 65 -9 C46 -9 30 4 30 24 C30 27 31 34 32 37 L231 667 C239 695 251 716 277 716 C302 716 315 694 324 667 L523 37 C523 35 524 28 524 24 C524 4 509 -9 489 -9 C477 -9 461 1 457 15 L411 163 L142 163 L142 163 Z M277 607 L161 228 L392 228 L277 607 L277 607 Z M432 844 C432 827 420 815 404 815 L149 815 C132 815 119 827 119 844 C119 860 132 874 149 874 L404 874 C420 874 432 860 432 844 L432 844 Z " />
<glyph glyph-name="amacron" unicode="&#x101;" horiz-adv-x="482" d="M335 272 L335 341 C335 422 297 460 218 460 C181 460 160 452 137 438 C131 434 123 430 113 430 C98 430 92 444 91 456 C87 498 161 515 228 515 C351 515 400 445 400 314 L400 88 C400 62 409 49 427 49 C431 49 433 50 435 50 C450 50 457 36 457 23 C457 3 437 -4 419 -4 C388 -4 361 18 343 53 C301 13 254 -7 200 -7 C99 -7 50 53 50 140 L50 144 C50 240 107 290 224 290 C258 290 296 283 335 272 L335 272 Z M223 237 C131 237 114 194 114 143 L114 139 C114 87 137 49 213 49 C259 49 296 65 335 98 L335 218 C295 231 253 237 223 237 L223 237 Z M376 644 C376 627 364 615 348 615 L93 615 C76 615 63 627 63 644 C63 660 76 674 93 674 L348 674 C364 674 376 660 376 644 L376 644 Z " />
<glyph glyph-name="Abreve" unicode="&#x102;" horiz-adv-x="549" d="M142 163 L97 15 C91 3 76 -9 65 -9 C46 -9 30 4 30 24 C30 27 31 34 32 37 L231 667 C239 695 251 716 277 716 C302 716 315 694 324 667 L523 37 C523 35 524 28 524 24 C524 4 509 -9 489 -9 C477 -9 461 1 457 15 L411 163 L142 163 L142 163 Z M277 607 L161 228 L392 228 L277 607 L277 607 Z M276 832 C300 832 325 845 348 877 C355 887 364 891 373 891 C386 891 398 883 392 862 C378 812 320 785 276 785 C233 785 168 811 158 862 C154 880 168 891 179 891 C188 891 197 887 203 877 C227 845 249 832 276 832 L276 832 Z " />
<glyph glyph-name="abreve" unicode="&#x103;" horiz-adv-x="482" d="M335 272 L335 341 C335 422 297 460 218 460 C181 460 160 452 137 438 C131 434 123 430 113 430 C98 430 92 444 91 456 C87 498 161 515 228 515 C351 515 400 445 400 314 L400 88 C400 62 409 49 427 49 C431 49 433 50 435 50 C450 50 457 36 457 23 C457 3 437 -4 419 -4 C388 -4 361 18 343 53 C301 13 254 -7 200 -7 C99 -7 50 53 50 140 L50 144 C50 240 107 290 224 290 C258 290 296 283 335 272 L335 272 Z M223 237 C131 237 114 194 114 143 L114 139 C114 87 137 49 213 49 C259 49 296 65 335 98 L335 218 C295 231 253 237 223 237 L223 237 Z M243 632 C267 632 292 645 315 677 C322 687 331 691 340 691 C353 691 365 683 359 662 C345 612 287 585 243 585 C200 585 135 611 125 662 C121 680 135 691 146 691 C155 691 164 687 170 677 C194 645 216 632 243 632 L243 632 Z " />
<glyph glyph-name="Aogonek" unicode="&#x104;" horiz-adv-x="549" d="M593 -167 C593 -194 551 -198 523 -198 C464 -198 425 -172 425 -114 C425 -80 444 -37 470 -2 C461 4 457 10 456 15 L410 163 L142 163 L97 15 C91 3 75 -9 65 -9 C46 -9 29 4 29 24 C29 27 30 34 31 37 L231 667 C239 695 251 716 277 716 C302 716 314 694 324 667 L523 37 C523 35 524 28 524 24 C524 12 517 4 511 -3 C489 -28 478 -67 478 -98 C478 -128 495 -151 531 -151 C547 -151 554 -149 562 -148 C567 -147 571 -146 574 -146 C585 -146 593 -156 593 -167 L593 -167 Z M277 607 L161 228 L392 228 L277 607 L277 607 Z " />
<glyph glyph-name="aogonek" unicode="&#x105;" horiz-adv-x="482" d="M521 -168 C521 -196 479 -200 450 -200 C390 -200 351 -173 351 -115 C351 -82 370 -41 399 -3 C375 7 356 26 343 53 C301 13 253 -7 200 -7 C99 -7 49 53 49 140 L49 144 C49 240 107 290 223 290 C257 290 296 283 335 272 L335 341 C335 422 297 460 217 460 C180 460 159 451 137 438 C135 438 134 437 132 435 C128 433 118 430 112 430 C98 430 91 444 90 456 C86 498 161 515 228 515 C350 515 400 445 400 314 L400 88 C400 62 409 49 426 49 C431 49 433 50 435 50 C449 50 456 36 456 23 C456 11 450 6 444 1 L440 -2 C416 -26 405 -69 405 -99 C405 -129 422 -153 458 -153 C475 -153 482 -150 489 -149 C494 -148 499 -147 502 -147 C513 -147 521 -158 521 -168 L521 -168 Z M222 237 C131 237 113 194 113 143 L113 139 C113 87 137 49 212 49 C258 49 296 65 335 98 L335 218 C294 231 252 237 222 237 L222 237 Z " />
<glyph glyph-name="Cacute" unicode="&#x106;" horiz-adv-x="482" d="M50 244 L50 463 C50 616 121 716 273 716 C362 716 446 679 446 636 C446 620 434 608 417 608 C408 608 403 612 395 617 C393 619 388 621 385 623 C352 645 318 657 278 657 C157 657 117 582 117 463 L117 244 C117 126 157 51 278 51 C318 51 352 61 383 83 L394 90 C404 97 410 100 417 100 C434 100 446 87 446 72 C446 28 362 -8 273 -8 C121 -8 50 92 50 244 L50 244 Z M244 825 L331 916 C337 922 344 930 354 930 C368 930 379 916 379 903 C379 899 378 894 376 891 L294 804 C284 794 278 787 267 787 C252 787 240 800 240 815 C240 819 241 821 244 825 L244 825 Z " />
<glyph glyph-name="cacute" unicode="&#x107;" horiz-adv-x="393" d="M50 174 L50 330 C50 432 104 512 228 512 C273 512 363 500 363 457 C363 442 351 430 336 430 C330 430 326 431 321 432 L322 432 C297 445 273 457 236 457 C149 457 115 410 115 330 L115 174 C115 95 149 48 236 48 C275 48 298 60 322 72 L321 72 C328 74 332 75 336 75 C351 75 363 62 363 47 C363 5 273 -7 228 -7 C104 -7 50 72 50 174 L50 174 Z M182 625 L269 716 C275 722 282 730 292 730 C306 730 317 716 317 703 C317 699 316 694 314 691 L232 604 C222 594 216 587 205 587 C190 587 178 600 178 615 C178 619 179 621 182 625 L182 625 Z " />
<glyph glyph-name="Ccircumflex" unicode="&#x108;" horiz-adv-x="482" d="M50 244 L50 463 C50 616 121 716 273 716 C362 716 446 679 446 636 C446 620 434 608 417 608 C408 608 403 612 395 617 C393 619 388 621 385 623 C352 645 318 657 278 657 C157 657 117 582 117 463 L117 244 C117 126 157 51 278 51 C318 51 352 61 383 83 L394 90 C404 97 410 100 417 100 C434 100 446 87 446 72 C446 28 362 -8 273 -8 C121 -8 50 92 50 244 L50 244 Z M269 853 L186 785 C185 783 177 782 173 782 C164 782 155 792 155 801 C155 808 163 819 171 825 L252 894 C256 897 262 901 269 901 C275 901 282 898 286 894 L367 825 C374 819 383 808 383 801 C383 792 374 782 364 782 C360 782 353 783 352 785 L269 853 L269 853 Z " />
<glyph glyph-name="ccircumflex" unicode="&#x109;" horiz-adv-x="393" d="M50 174 L50 330 C50 432 104 512 228 512 C273 512 363 500 363 457 C363 442 351 430 336 430 C330 430 326 431 321 432 L322 432 C297 445 273 457 236 457 C149 457 115 410 115 330 L115 174 C115 95 149 48 236 48 C275 48 298 60 322 72 L321 72 C328 74 332 75 336 75 C351 75 363 62 363 47 C363 5 273 -7 228 -7 C104 -7 50 72 50 174 L50 174 Z M199 653 L116 585 C115 583 107 582 103 582 C94 582 85 592 85 601 C85 608 93 619 101 625 L182 694 C186 697 192 701 199 701 C205 701 212 698 216 694 L297 625 C304 619 313 608 313 601 C313 592 304 582 294 582 C290 582 283 583 282 585 L199 653 L199 653 Z " />
<glyph glyph-name="Cdotaccent" unicode="&#x10a;" horiz-adv-x="482" d="M50 244 L50 463 C50 616 121 716 273 716 C362 716 446 679 446 636 C446 620 434 608 417 608 C408 608 403 612 395 617 C393 619 388 621 385 623 C352 645 318 657 278 657 C157 657 117 582 117 463 L117 244 C117 126 157 51 278 51 C318 51 352 61 383 83 L394 90 C404 97 410 100 417 100 C434 100 446 87 446 72 C446 28 362 -8 273 -8 C121 -8 50 92 50 244 L50 244 Z M282 846 C282 822 264 804 241 804 C219 804 201 823 201 846 C201 867 219 887 241 887 C264 887 282 868 282 846 L282 846 Z " />
<glyph glyph-name="cdotaccent" unicode="&#x10b;" horiz-adv-x="393" d="M50 174 L50 330 C50 432 104 512 228 512 C273 512 363 500 363 457 C363 442 351 430 336 430 C330 430 326 431 321 432 L322 432 C297 445 273 457 236 457 C149 457 115 410 115 330 L115 174 C115 95 149 48 236 48 C275 48 298 60 322 72 L321 72 C328 74 332 75 336 75 C351 75 363 62 363 47 C363 5 273 -7 228 -7 C104 -7 50 72 50 174 L50 174 Z M237 646 C237 622 219 604 196 604 C174 604 156 623 156 646 C156 667 174 687 196 687 C219 687 237 668 237 646 L237 646 Z " />
<glyph glyph-name="Ccaron" unicode="&#x10c;" horiz-adv-x="482" d="M50 244 L50 463 C50 616 121 716 273 716 C362 716 446 679 446 636 C446 620 434 608 417 608 C408 608 403 612 395 617 C393 619 388 621 385 623 C352 645 318 657 278 657 C157 657 117 582 117 463 L117 244 C117 126 157 51 278 51 C318 51 352 61 383 83 L394 90 C404 97 410 100 417 100 C434 100 446 87 446 72 C446 28 362 -8 273 -8 C121 -8 50 92 50 244 L50 244 Z M278 775 C270 775 263 778 259 782 L169 857 C159 866 150 875 150 886 C150 899 164 908 174 908 C180 908 184 905 188 902 L278 829 L368 902 C372 906 377 908 382 908 C394 908 405 899 405 886 C405 874 397 866 387 857 L297 782 C293 778 286 775 278 775 L278 775 Z " />
<glyph glyph-name="ccaron" unicode="&#x10d;" horiz-adv-x="393" d="M50 174 L50 330 C50 432 104 512 228 512 C273 512 363 500 363 457 C363 442 351 430 336 430 C330 430 326 431 321 432 L322 432 C297 445 273 457 236 457 C149 457 115 410 115 330 L115 174 C115 95 149 48 236 48 C275 48 298 60 322 72 L321 72 C328 74 332 75 336 75 C351 75 363 62 363 47 C363 5 273 -7 228 -7 C104 -7 50 72 50 174 L50 174 Z M225 575 C217 575 210 578 206 582 L116 657 C106 666 97 675 97 686 C97 699 111 708 121 708 C127 708 131 705 135 702 L225 629 L315 702 C319 706 324 708 329 708 C341 708 352 699 352 686 C352 674 344 666 334 657 L244 582 C240 578 233 575 225 575 L225 575 Z " />
<glyph glyph-name="Dcaron" unicode="&#x10e;" horiz-adv-x="554" d="M508 263 C508 127 439 1 236 1 L120 1 C98 1 79 19 79 42 L79 665 C79 688 98 707 120 707 L236 707 C438 707 508 586 508 454 L508 263 L508 263 Z M441 263 L441 454 C441 559 391 643 253 643 L145 643 L145 65 L253 65 C393 65 441 153 441 263 L441 263 Z M279 775 C271 775 264 778 260 782 L170 857 C160 866 151 875 151 886 C151 899 165 908 175 908 C181 908 185 905 189 902 L279 829 L369 902 C373 906 378 908 383 908 C395 908 406 899 406 886 C406 874 398 866 388 857 L298 782 C294 778 287 775 279 775 L279 775 Z " />
<glyph glyph-name="dcaron" unicode="&#x10f;" horiz-adv-x="605" d="M215 511 C248 511 293 503 336 489 L336 701 C336 718 348 733 369 733 C390 733 401 718 401 701 L401 110 C401 79 407 60 431 42 C433 38 435 34 435 28 C435 11 421 0 407 0 C386 0 368 14 355 35 C308 11 256 -7 207 -7 C103 -7 50 69 50 179 L50 310 C50 429 89 511 215 511 L215 511 Z M336 110 L336 432 C297 448 250 457 225 457 C144 457 115 412 115 310 L115 179 C115 94 150 49 223 49 C259 49 302 62 340 81 C336 98 336 104 336 110 L336 110 Z M575 679 C575 614 530 520 506 520 C500 520 493 522 493 529 C493 544 502 557 511 573 C518 585 524 594 533 629 C504 632 481 653 481 679 C481 705 503 726 529 726 C555 726 575 705 575 679 L575 679 Z " />
<glyph glyph-name="Dcroat" unicode="&#x110;" horiz-adv-x="574" d="M528 263 C528 127 460 1 257 1 L141 1 C119 1 99 19 99 42 L99 325 L52 325 C35 325 22 337 22 354 C22 370 35 384 52 384 L99 384 L99 665 C99 688 119 707 141 707 L257 707 C459 707 528 586 528 454 L528 263 L528 263 Z M335 354 C335 337 323 325 307 325 L166 325 L166 65 L274 65 C414 65 462 153 462 263 L462 454 C462 559 412 643 274 643 L166 643 L166 384 L307 384 C323 384 335 370 335 354 L335 354 Z " />
<glyph glyph-name="dcroat" unicode="&#x111;" horiz-adv-x="488" d="M486 617 C486 601 474 588 458 588 L401 588 L401 110 C401 79 407 60 431 42 C433 38 435 34 435 28 C435 11 420 0 407 0 C385 0 368 14 355 35 C307 11 256 -7 206 -7 C103 -7 49 69 49 179 L49 310 C49 429 89 511 214 511 C247 511 293 503 336 489 L336 588 L201 588 C183 588 170 601 170 617 C170 634 183 648 201 648 L336 648 L336 701 C336 718 347 733 369 733 C390 733 401 718 401 701 L401 648 L458 648 C474 648 486 634 486 617 L486 617 Z M336 110 L336 432 C297 448 249 457 225 457 C143 457 114 412 114 310 L114 179 C114 94 149 49 223 49 C259 49 302 62 340 81 C336 98 336 104 336 110 L336 110 Z " />
<glyph glyph-name="Emacron" unicode="&#x112;" horiz-adv-x="474" d="M440 35 C440 15 425 1 407 1 L136 1 C106 1 79 10 79 41 L79 665 C79 686 96 706 120 706 L397 706 C415 706 429 691 429 672 C429 655 415 642 397 642 L145 642 L145 387 L377 387 C394 387 409 373 409 355 C409 337 395 323 377 323 L145 323 L145 65 L407 65 C424 65 440 51 440 35 L440 35 Z M395 844 C395 827 383 815 367 815 L112 815 C95 815 82 827 82 844 C82 860 95 874 112 874 L367 874 C383 874 395 860 395 844 L395 844 Z " />
<glyph glyph-name="emacron" unicode="&#x113;" horiz-adv-x="435" d="M236 48 C282 48 310 61 346 77 C348 78 353 80 357 80 C373 80 385 66 385 52 C385 7 279 -7 226 -7 C114 -7 50 64 50 156 L50 348 C50 443 114 515 232 515 C341 515 394 452 394 355 C394 265 345 210 228 210 C195 210 154 213 115 221 L115 150 C115 89 156 48 236 48 L236 48 Z M330 355 C330 428 293 458 229 458 C157 458 115 418 115 356 L115 271 C158 265 211 263 232 263 C316 263 330 308 330 355 L330 355 Z M375 644 C375 627 363 615 347 615 L92 615 C75 615 62 627 62 644 C62 660 75 674 92 674 L347 674 C363 674 375 660 375 644 L375 644 Z " />
<glyph glyph-name="Ebreve" unicode="&#x114;" horiz-adv-x="474" d="M440 35 C440 15 425 1 407 1 L136 1 C106 1 79 10 79 41 L79 665 C79 686 96 706 120 706 L397 706 C415 706 429 691 429 672 C429 655 415 642 397 642 L145 642 L145 387 L377 387 C394 387 409 373 409 355 C409 337 395 323 377 323 L145 323 L145 65 L407 65 C424 65 440 51 440 35 L440 35 Z M239 832 C263 832 288 845 311 877 C318 887 327 891 336 891 C349 891 361 883 355 862 C341 812 283 785 239 785 C196 785 131 811 121 862 C117 880 131 891 142 891 C151 891 160 887 166 877 C190 845 212 832 239 832 L239 832 Z " />
<glyph glyph-name="ebreve" unicode="&#x115;" horiz-adv-x="435" d="M236 48 C282 48 310 61 346 77 C348 78 353 80 357 80 C373 80 385 66 385 52 C385 7 279 -7 226 -7 C114 -7 50 64 50 156 L50 348 C50 443 114 515 232 515 C341 515 394 452 394 355 C394 265 345 210 228 210 C195 210 154 213 115 221 L115 150 C115 89 156 48 236 48 L236 48 Z M330 355 C330 428 293 458 229 458 C157 458 115 418 115 356 L115 271 C158 265 211 263 232 263 C316 263 330 308 330 355 L330 355 Z M219 632 C243 632 268 645 291 677 C298 687 307 691 316 691 C329 691 341 683 335 662 C321 612 263 585 219 585 C176 585 111 611 101 662 C97 680 111 691 122 691 C131 691 140 687 146 677 C170 645 192 632 219 632 L219 632 Z " />
<glyph glyph-name="Edotaccent" unicode="&#x116;" horiz-adv-x="474" d="M440 35 C440 15 425 1 407 1 L136 1 C106 1 79 10 79 41 L79 665 C79 686 96 706 120 706 L397 706 C415 706 429 691 429 672 C429 655 415 642 397 642 L145 642 L145 387 L377 387 C394 387 409 373 409 355 C409 337 395 323 377 323 L145 323 L145 65 L407 65 C424 65 440 51 440 35 L440 35 Z M278 846 C278 822 260 804 237 804 C215 804 197 823 197 846 C197 867 215 887 237 887 C260 887 278 868 278 846 L278 846 Z " />
<glyph glyph-name="edotaccent" unicode="&#x117;" horiz-adv-x="435" d="M236 48 C282 48 310 61 346 77 C348 78 353 80 357 80 C373 80 385 66 385 52 C385 7 279 -7 226 -7 C114 -7 50 64 50 156 L50 348 C50 443 114 515 232 515 C341 515 394 452 394 355 C394 265 345 210 228 210 C195 210 154 213 115 221 L115 150 C115 89 156 48 236 48 L236 48 Z M330 355 C330 428 293 458 229 458 C157 458 115 418 115 356 L115 271 C158 265 211 263 232 263 C316 263 330 308 330 355 L330 355 Z M258 646 C258 622 240 604 217 604 C195 604 177 623 177 646 C177 667 195 687 217 687 C240 687 258 668 258 646 L258 646 Z " />
<glyph glyph-name="Eogonek" unicode="&#x118;" horiz-adv-x="474" d="M482 -167 C482 -194 440 -198 412 -198 C352 -198 314 -172 314 -114 C314 -81 332 -39 361 1 L136 1 C106 1 79 10 79 41 L79 665 C79 686 96 706 120 706 L396 706 C415 706 429 691 429 672 C429 655 415 642 396 642 L145 642 L145 387 L377 387 C393 387 409 373 409 355 C409 337 394 323 377 323 L145 323 L145 65 L407 65 C424 65 439 51 439 35 C439 15 422 1 402 1 L395 -12 C383 -40 367 -72 367 -98 C367 -128 384 -151 420 -151 C436 -151 443 -149 451 -148 C456 -147 460 -146 463 -146 C474 -146 482 -156 482 -167 L482 -167 Z " />
<glyph glyph-name="eogonek" unicode="&#x119;" horiz-adv-x="435" d="M394 -168 C394 -196 352 -200 323 -200 C263 -200 224 -173 224 -115 C224 -82 239 -43 266 -6 C260 -6 241 -7 237 -7 L226 -7 C114 -7 50 64 50 156 L50 348 C50 443 114 515 232 515 C341 515 394 452 394 355 C394 265 345 210 228 210 C195 210 154 213 115 221 L115 150 C115 89 156 48 236 48 C282 48 310 61 346 77 C348 78 353 80 357 80 C373 80 385 66 385 52 C385 37 368 28 347 18 L321 3 C287 -20 278 -68 278 -99 C278 -129 295 -153 332 -153 C348 -153 355 -150 362 -149 C368 -148 372 -147 375 -147 C386 -147 394 -158 394 -168 L394 -168 Z M330 355 C330 428 293 458 229 458 C157 458 115 418 115 356 L115 271 C158 265 211 263 232 263 C316 263 330 308 330 355 L330 355 Z " />
<glyph glyph-name="Ecaron" unicode="&#x11a;" horiz-adv-x="474" d="M440 35 C440 15 425 1 407 1 L136 1 C106 1 79 10 79 41 L79 665 C79 686 96 706 120 706 L397 706 C415 706 429 691 429 672 C429 655 415 642 397 642 L145 642 L145 387 L377 387 C394 387 409 373 409 355 C409 337 395 323 377 323 L145 323 L145 65 L407 65 C424 65 440 51 440 35 L440 35 Z M269 775 C261 775 254 778 250 782 L160 857 C150 866 141 875 141 886 C141 899 155 908 165 908 C171 908 175 905 179 902 L269 829 L359 902 C363 906 368 908 373 908 C385 908 396 899 396 886 C396 874 388 866 378 857 L288 782 C284 778 277 775 269 775 L269 775 Z " />
<glyph glyph-name="ecaron" unicode="&#x11b;" horiz-adv-x="435" d="M236 48 C282 48 310 61 346 77 C348 78 353 80 357 80 C373 80 385 66 385 52 C385 7 279 -7 226 -7 C114 -7 50 64 50 156 L50 348 C50 443 114 515 232 515 C341 515 394 452 394 355 C394 265 345 210 228 210 C195 210 154 213 115 221 L115 150 C115 89 156 48 236 48 L236 48 Z M330 355 C330 428 293 458 229 458 C157 458 115 418 115 356 L115 271 C158 265 211 263 232 263 C316 263 330 308 330 355 L330 355 Z M219 575 C211 575 204 578 200 582 L110 657 C100 666 91 675 91 686 C91 699 105 708 115 708 C121 708 125 705 129 702 L219 629 L309 702 C313 706 318 708 323 708 C335 708 346 699 346 686 C346 674 338 666 328 657 L238 582 C234 578 227 575 219 575 L219 575 Z " />
<glyph glyph-name="Gcircumflex" unicode="&#x11c;" horiz-adv-x="520" d="M117 463 L117 244 C117 126 157 51 278 51 C329 51 368 66 401 92 L401 324 L294 324 C278 324 263 337 263 355 C263 372 278 386 294 386 L416 386 C445 386 466 374 466 346 L466 102 C466 26 360 -8 273 -8 C121 -8 50 92 50 244 L50 463 C50 616 121 716 273 716 C362 716 446 679 446 636 C446 620 433 608 417 608 C408 608 403 612 395 617 C393 619 387 621 384 623 C352 645 318 657 278 657 C157 657 117 582 117 463 L117 463 Z M262 853 L179 785 C178 783 170 782 166 782 C157 782 148 792 148 801 C148 808 156 819 164 825 L245 894 C249 897 255 901 262 901 C268 901 275 898 279 894 L360 825 C367 819 376 808 376 801 C376 792 367 782 357 782 C353 782 346 783 345 785 L262 853 L262 853 Z " />
<glyph glyph-name="gcircumflex" unicode="&#x11d;" horiz-adv-x="493" d="M234 515 C280 515 331 502 373 477 C397 521 432 540 451 540 C468 540 481 528 481 511 C481 503 479 498 477 496 L468 486 C434 454 418 438 418 391 L418 327 C418 227 359 149 240 149 C210 149 181 155 155 165 C142 142 138 122 138 107 C138 65 176 55 202 55 L245 55 C358 55 443 11 443 -84 C443 -183 357 -243 240 -243 C128 -243 50 -188 50 -93 C50 -47 70 -8 107 25 C81 50 73 81 73 104 C73 126 82 157 117 188 C77 225 57 275 57 334 C57 437 115 515 234 515 L234 515 Z M354 390 C354 395 355 409 357 424 C321 446 283 459 244 459 C163 459 122 413 122 332 C122 258 157 208 240 208 C319 208 354 252 354 325 L354 390 L354 390 Z M204 -4 C185 -4 168 -2 155 1 C127 -21 114 -49 114 -82 C114 -149 158 -185 242 -185 C321 -185 378 -153 378 -86 C378 -28 335 -4 247 -4 L204 -4 L204 -4 Z M248 653 L165 585 C164 583 156 582 152 582 C143 582 134 592 134 601 C134 608 142 619 150 625 L231 694 C235 697 241 701 248 701 C254 701 261 698 265 694 L346 625 C353 619 362 608 362 601 C362 592 353 582 343 582 C339 582 332 583 331 585 L248 653 L248 653 Z " />
<glyph glyph-name="Gbreve" unicode="&#x11e;" horiz-adv-x="520" d="M117 463 L117 244 C117 126 157 51 278 51 C329 51 368 66 401 92 L401 324 L294 324 C278 324 263 337 263 355 C263 372 278 386 294 386 L416 386 C445 386 466 374 466 346 L466 102 C466 26 360 -8 273 -8 C121 -8 50 92 50 244 L50 463 C50 616 121 716 273 716 C362 716 446 679 446 636 C446 620 433 608 417 608 C408 608 403 612 395 617 C393 619 387 621 384 623 C352 645 318 657 278 657 C157 657 117 582 117 463 L117 463 Z M262 832 C286 832 311 845 334 877 C341 887 350 891 359 891 C372 891 384 883 378 862 C364 812 306 785 262 785 C219 785 154 811 144 862 C140 880 154 891 165 891 C174 891 183 887 189 877 C213 845 235 832 262 832 L262 832 Z " />
<glyph glyph-name="gbreve" unicode="&#x11f;" horiz-adv-x="493" d="M234 515 C280 515 331 502 373 477 C397 521 432 540 451 540 C468 540 481 528 481 511 C481 503 479 498 477 496 L468 486 C434 454 418 438 418 391 L418 327 C418 227 359 149 240 149 C210 149 181 155 155 165 C142 142 138 122 138 107 C138 65 176 55 202 55 L245 55 C358 55 443 11 443 -84 C443 -183 357 -243 240 -243 C128 -243 50 -188 50 -93 C50 -47 70 -8 107 25 C81 50 73 81 73 104 C73 126 82 157 117 188 C77 225 57 275 57 334 C57 437 115 515 234 515 L234 515 Z M354 390 C354 395 355 409 357 424 C321 446 283 459 244 459 C163 459 122 413 122 332 C122 258 157 208 240 208 C319 208 354 252 354 325 L354 390 L354 390 Z M204 -4 C185 -4 168 -2 155 1 C127 -21 114 -49 114 -82 C114 -149 158 -185 242 -185 C321 -185 378 -153 378 -86 C378 -28 335 -4 247 -4 L204 -4 L204 -4 Z M248 632 C272 632 297 645 320 677 C327 687 336 691 345 691 C358 691 370 683 364 662 C350 612 292 585 248 585 C205 585 140 611 130 662 C126 680 140 691 151 691 C160 691 169 687 175 677 C199 645 221 632 248 632 L248 632 Z " />
<glyph glyph-name="Gdotaccent" unicode="&#x120;" horiz-adv-x="520" d="M117 463 L117 244 C117 126 157 51 278 51 C329 51 368 66 401 92 L401 324 L294 324 C278 324 263 337 263 355 C263 372 278 386 294 386 L416 386 C445 386 466 374 466 346 L466 102 C466 26 360 -8 273 -8 C121 -8 50 92 50 244 L50 463 C50 616 121 716 273 716 C362 716 446 679 446 636 C446 620 433 608 417 608 C408 608 403 612 395 617 C393 619 387 621 384 623 C352 645 318 657 278 657 C157 657 117 582 117 463 L117 463 Z M301 846 C301 822 283 804 260 804 C238 804 220 823 220 846 C220 867 238 887 260 887 C283 887 301 868 301 846 L301 846 Z " />
<glyph glyph-name="gdotaccent" unicode="&#x121;" horiz-adv-x="493" d="M234 515 C280 515 331 502 373 477 C397 521 432 540 451 540 C468 540 481 528 481 511 C481 503 479 498 477 496 L468 486 C434 454 418 438 418 391 L418 327 C418 227 359 149 240 149 C210 149 181 155 155 165 C142 142 138 122 138 107 C138 65 176 55 202 55 L245 55 C358 55 443 11 443 -84 C443 -183 357 -243 240 -243 C128 -243 50 -188 50 -93 C50 -47 70 -8 107 25 C81 50 73 81 73 104 C73 126 82 157 117 188 C77 225 57 275 57 334 C57 437 115 515 234 515 L234 515 Z M354 390 C354 395 355 409 357 424 C321 446 283 459 244 459 C163 459 122 413 122 332 C122 258 157 208 240 208 C319 208 354 252 354 325 L354 390 L354 390 Z M204 -4 C185 -4 168 -2 155 1 C127 -21 114 -49 114 -82 C114 -149 158 -185 242 -185 C321 -185 378 -153 378 -86 C378 -28 335 -4 247 -4 L204 -4 L204 -4 Z M287 646 C287 622 269 604 246 604 C224 604 206 623 206 646 C206 667 224 687 246 687 C269 687 287 668 287 646 L287 646 Z " />
<glyph glyph-name="uni0122" unicode="&#x122;" horiz-adv-x="520" d="M117 463 L117 244 C117 126 157 51 278 51 C329 51 368 66 401 92 L401 324 L294 324 C278 324 263 337 263 355 C263 372 278 386 294 386 L416 386 C445 386 466 374 466 346 L466 102 C466 26 360 -8 273 -8 C121 -8 50 92 50 244 L50 463 C50 616 121 716 273 716 C362 716 446 679 446 636 C446 620 433 608 417 608 C408 608 403 612 395 617 C393 619 387 621 384 623 C352 645 318 657 278 657 C157 657 117 582 117 463 L117 463 Z M329 -113 C329 -167 284 -242 259 -242 C253 -242 247 -239 247 -233 C247 -226 256 -216 263 -205 C270 -197 281 -183 289 -163 C258 -161 235 -139 235 -113 C235 -87 256 -66 283 -66 C308 -66 329 -88 329 -113 L329 -113 Z " />
<glyph glyph-name="uni0123" unicode="&#x123;" horiz-adv-x="493" d="M234 515 C280 515 331 502 373 477 C397 521 432 540 451 540 C468 540 481 528 481 511 C481 503 479 498 477 496 L468 486 C434 454 418 438 418 391 L418 327 C418 227 359 149 240 149 C210 149 181 155 155 165 C142 142 138 122 138 107 C138 65 176 55 202 55 L245 55 C358 55 443 8 443 -90 C443 -189 357 -249 240 -249 C128 -249 50 -194 50 -99 C50 -50 70 -11 107 25 C81 50 73 81 73 104 C73 126 82 157 117 188 C77 225 57 275 57 334 C57 437 115 515 234 515 L234 515 Z M354 390 C354 395 355 409 357 424 C321 446 283 459 244 459 C163 459 122 413 122 332 C122 258 157 208 240 208 C319 208 354 252 354 325 L354 390 L354 390 Z M204 -4 C185 -4 168 -2 155 1 C127 -24 114 -52 114 -88 C114 -155 158 -191 242 -191 C321 -191 378 -159 378 -92 C378 -31 335 -4 247 -4 L204 -4 L204 -4 Z M203 649 C203 703 248 780 274 780 C280 780 286 777 286 770 C286 760 278 751 270 742 C262 733 254 720 244 700 C275 698 298 675 298 649 C298 624 277 603 250 603 C225 603 203 624 203 649 L203 649 Z " />
<glyph glyph-name="Hcircumflex" unicode="&#x124;" horiz-adv-x="580" d="M506 25 C506 6 491 -9 473 -9 C456 -9 439 6 439 25 L439 322 L145 322 L145 25 C145 6 131 -9 112 -9 C94 -9 79 6 79 25 L79 683 C79 700 94 716 112 716 C131 716 145 700 145 683 L145 386 L439 386 L439 683 C439 700 456 716 473 716 C490 716 506 700 506 683 L506 25 L506 25 Z M292 853 L209 785 C208 783 200 782 196 782 C187 782 178 792 178 801 C178 808 186 819 194 825 L275 894 C279 897 285 901 292 901 C298 901 305 898 309 894 L390 825 C397 819 406 808 406 801 C406 792 397 782 387 782 C383 782 376 783 375 785 L292 853 L292 853 Z " />
<glyph glyph-name="hcircumflex" unicode="&#x125;" horiz-adv-x="507" d="M143 25 C143 7 130 -7 113 -7 C94 -7 80 7 80 25 L80 706 C80 722 93 739 111 739 C129 739 143 725 143 706 L143 463 C186 496 234 515 281 515 C386 515 433 447 433 351 L433 25 C433 7 419 -7 401 -7 C383 -7 368 7 368 25 L368 350 C368 418 340 456 271 456 C228 456 177 435 143 390 L143 25 L143 25 Z M292 853 L209 785 C208 783 200 782 196 782 C187 782 178 792 178 801 C178 808 186 819 194 825 L275 894 C279 897 285 901 292 901 C298 901 305 898 309 894 L390 825 C397 819 406 808 406 801 C406 792 397 782 387 782 C383 782 376 783 375 785 L292 853 L292 853 Z " />
<glyph glyph-name="Itilde" unicode="&#x128;" horiz-adv-x="227" d="M80 24 L80 683 C80 700 96 716 114 716 C133 716 147 700 147 683 L147 24 C147 6 133 -9 114 -9 C96 -9 80 6 80 24 L80 24 Z M249 856 C249 825 206 802 172 802 C150 802 130 811 113 820 C100 826 91 835 69 835 C57 835 43 832 24 817 C17 811 13 808 5 808 C-7 808 -18 815 -18 831 C-18 859 19 887 57 887 C77 887 95 879 115 868 C132 859 144 855 160 854 C187 854 198 862 208 871 C213 875 221 883 229 883 C237 883 249 873 249 856 L249 856 Z " />
<glyph glyph-name="itilde" unicode="&#x129;" horiz-adv-x="245" d="M156 25 C156 7 141 -7 124 -7 C105 -7 91 7 91 25 L91 479 C91 497 105 512 124 512 C141 512 156 497 156 479 L156 25 L156 25 Z M258 656 C258 625 215 602 181 602 C159 602 139 611 122 620 C109 626 100 635 78 635 C66 635 52 632 33 617 C26 611 22 608 14 608 C2 608 -9 615 -9 631 C-9 659 28 687 66 687 C86 687 104 679 124 668 C141 659 153 655 169 654 C196 654 207 662 217 671 C222 675 230 683 238 683 C246 683 258 673 258 656 L258 656 Z " />
<glyph glyph-name="Imacron" unicode="&#x12a;" horiz-adv-x="227" d="M80 24 L80 683 C80 700 96 716 114 716 C133 716 147 700 147 683 L147 24 C147 6 133 -9 114 -9 C96 -9 80 6 80 24 L80 24 Z M272 844 C272 827 260 815 244 815 L-11 815 C-28 815 -41 827 -41 844 C-41 860 -28 874 -11 874 L244 874 C260 874 272 860 272 844 L272 844 Z " />
<glyph glyph-name="imacron" unicode="&#x12b;" horiz-adv-x="245" d="M156 25 C156 7 141 -7 124 -7 C105 -7 91 7 91 25 L91 479 C91 497 105 512 124 512 C141 512 156 497 156 479 L156 25 L156 25 Z M281 644 C281 627 269 615 253 615 L-2 615 C-19 615 -32 627 -32 644 C-32 660 -19 674 -2 674 L253 674 C269 674 281 660 281 644 L281 644 Z " />
<glyph glyph-name="Ibreve" unicode="&#x12c;" horiz-adv-x="227" d="M80 24 L80 683 C80 700 96 716 114 716 C133 716 147 700 147 683 L147 24 C147 6 133 -9 114 -9 C96 -9 80 6 80 24 L80 24 Z M116 832 C140 832 165 845 188 877 C195 887 204 891 213 891 C226 891 238 883 232 862 C218 812 160 785 116 785 C73 785 8 811 -2 862 C-6 880 8 891 19 891 C28 891 37 887 43 877 C67 845 89 832 116 832 L116 832 Z " />
<glyph glyph-name="ibreve" unicode="&#x12d;" horiz-adv-x="245" d="M156 25 C156 7 141 -7 124 -7 C105 -7 91 7 91 25 L91 479 C91 497 105 512 124 512 C141 512 156 497 156 479 L156 25 L156 25 Z M125 632 C149 632 174 645 197 677 C204 687 213 691 222 691 C235 691 247 683 241 662 C227 612 169 585 125 585 C82 585 17 611 7 662 C3 680 17 691 28 691 C37 691 46 687 52 677 C76 645 98 632 125 632 L125 632 Z " />
<glyph glyph-name="Iogonek" unicode="&#x12e;" horiz-adv-x="227" d="M216 -167 C216 -194 174 -198 146 -198 C86 -198 48 -172 48 -114 C48 -81 65 -40 94 -4 C85 5 80 15 80 24 L80 683 C80 700 96 716 114 716 C132 716 147 700 147 683 L147 24 C147 13 140 5 134 -2 C115 -29 101 -68 101 -98 C101 -128 118 -151 154 -151 C170 -151 177 -149 184 -148 C190 -147 194 -146 197 -146 C208 -146 216 -156 216 -167 L216 -167 Z " />
<glyph glyph-name="iogonek" unicode="&#x12f;" horiz-adv-x="245" d="M225 -168 C225 -196 182 -200 153 -200 C94 -200 55 -173 55 -115 C55 -79 73 -38 103 -2 C95 8 91 16 91 25 L91 479 C91 497 105 512 124 512 C141 512 156 497 156 479 L156 25 C156 15 150 7 144 0 C121 -28 108 -69 108 -99 C108 -129 126 -153 162 -153 C178 -153 185 -150 193 -149 C198 -148 202 -147 205 -147 C216 -147 225 -158 225 -168 L225 -168 Z M165 681 C165 659 146 640 124 640 C100 640 81 659 81 681 C81 705 100 723 124 723 C146 723 165 705 165 681 L165 681 Z " />
<glyph glyph-name="Idotaccent" unicode="&#x130;" horiz-adv-x="227" d="M80 24 L80 683 C80 700 96 716 114 716 C133 716 147 700 147 683 L147 24 C147 6 133 -9 114 -9 C96 -9 80 6 80 24 L80 24 Z M155 846 C155 822 137 804 114 804 C92 804 74 823 74 846 C74 867 92 887 114 887 C137 887 155 868 155 846 L155 846 Z " />
<glyph glyph-name="dotlessi" unicode="&#x131;" horiz-adv-x="245" d="M156 25 C156 7 141 -7 124 -7 C105 -7 91 7 91 25 L91 479 C91 497 105 512 124 512 C141 512 156 497 156 479 L156 25 L156 25 Z " />
<glyph glyph-name="Jcircumflex" unicode="&#x134;" horiz-adv-x="385" d="M309 683 L309 223 C309 79 263 -9 111 -9 C84 -9 31 -7 31 29 C31 50 47 61 59 61 C61 61 68 60 75 59 C86 57 101 54 122 54 C222 54 242 120 242 223 L242 683 C242 701 257 716 276 716 C293 716 309 700 309 683 L309 683 Z M272 853 L189 785 C188 783 180 782 176 782 C167 782 158 792 158 801 C158 808 166 819 174 825 L255 894 C259 897 265 901 272 901 C278 901 285 898 289 894 L370 825 C377 819 386 808 386 801 C386 792 377 782 367 782 C363 782 356 783 355 785 L272 853 L272 853 Z " />
<glyph glyph-name="jcircumflex" unicode="&#x135;" horiz-adv-x="245" d="M157 479 L157 -23 C157 -124 103 -194 19 -208 C10 -209 6 -208 0 -208 C-12 -208 -24 -200 -27 -188 C-32 -165 -14 -155 -2 -153 C58 -139 92 -107 92 -27 L92 479 C92 497 106 512 125 512 C142 512 157 497 157 479 L157 479 Z M125 653 L42 585 C41 583 33 582 29 582 C20 582 11 592 11 601 C11 608 19 619 27 625 L108 694 C112 697 118 701 125 701 C131 701 138 698 142 694 L223 625 C230 619 239 608 239 601 C239 592 230 582 220 582 C216 582 209 583 208 585 L125 653 L125 653 Z " />
<glyph glyph-name="uni0136" unicode="&#x136;" horiz-adv-x="498" d="M432 6 L204 337 L145 264 L145 25 C145 6 131 -9 112 -9 C94 -9 79 6 79 25 L79 683 C79 700 94 716 112 716 C131 716 145 700 145 683 L145 363 L418 699 C424 708 437 716 449 716 C461 716 478 706 477 684 C476 674 473 667 469 661 L469 662 L246 388 L487 42 L486 42 C489 37 490 33 490 27 C490 11 484 -9 461 -9 C447 -9 439 -3 432 6 L432 6 Z M336 -113 C336 -167 291 -242 266 -242 C260 -242 254 -239 254 -233 C254 -226 263 -216 270 -205 C277 -197 288 -183 296 -163 C265 -161 242 -139 242 -113 C242 -87 263 -66 290 -66 C315 -66 336 -88 336 -113 L336 -113 Z " />
<glyph glyph-name="uni0137" unicode="&#x137;" horiz-adv-x="439" d="M145 700 L145 297 L345 504 C349 509 357 511 364 511 C381 511 394 498 394 481 C394 472 392 465 387 460 L231 301 L408 38 C411 34 414 24 414 19 C415 3 400 -7 383 -7 C371 -7 362 -2 356 8 L191 259 L145 211 L145 25 C145 7 130 -7 113 -7 C94 -7 80 7 80 25 L80 700 C80 718 94 733 113 733 C130 733 145 718 145 700 L145 700 Z M295 -113 C295 -167 250 -242 225 -242 C219 -242 213 -239 213 -233 C213 -226 222 -216 229 -205 C236 -197 247 -183 255 -163 C224 -161 201 -139 201 -113 C201 -87 222 -66 249 -66 C274 -66 295 -88 295 -113 L295 -113 Z " />
<glyph glyph-name="Lacute" unicode="&#x139;" horiz-adv-x="448" d="M437 33 C437 15 423 1 406 1 L118 1 C97 1 79 17 79 39 L79 683 C79 700 94 716 113 716 C131 716 145 700 145 683 L145 64 L406 64 C422 64 437 50 437 33 L437 33 Z M100 825 L187 916 C193 922 200 930 210 930 C224 930 235 916 235 903 C235 899 234 894 232 891 L150 804 C140 794 134 787 123 787 C108 787 96 800 96 815 C96 819 97 821 100 825 L100 825 Z " />
<glyph glyph-name="lacute" unicode="&#x13a;" horiz-adv-x="228" d="M82 90 L82 700 C82 717 96 733 114 733 C132 733 146 718 146 700 L146 90 C146 67 151 50 164 36 C166 33 168 26 168 22 C168 5 156 -7 139 -7 C117 -7 82 4 82 90 L82 90 Z M92 811 L179 902 C185 908 192 916 202 916 C216 916 227 902 227 889 C227 885 226 880 224 877 L142 790 C132 780 126 773 115 773 C100 773 88 786 88 801 C88 805 89 807 92 811 L92 811 Z " />
<glyph glyph-name="uni013B" unicode="&#x13b;" horiz-adv-x="448" d="M437 33 C437 15 423 1 406 1 L118 1 C97 1 79 17 79 39 L79 683 C79 700 94 716 113 716 C131 716 145 700 145 683 L145 64 L406 64 C422 64 437 50 437 33 L437 33 Z M318 -113 C318 -167 273 -242 248 -242 C242 -242 236 -239 236 -233 C236 -226 245 -216 252 -205 C259 -197 270 -183 278 -163 C247 -161 224 -139 224 -113 C224 -87 245 -66 272 -66 C297 -66 318 -88 318 -113 L318 -113 Z " />
<glyph glyph-name="uni013C" unicode="&#x13c;" horiz-adv-x="228" d="M82 90 L82 700 C82 717 96 733 114 733 C132 733 146 718 146 700 L146 90 C146 67 151 50 164 36 C166 33 168 26 168 22 C168 5 156 -7 139 -7 C117 -7 82 4 82 90 L82 90 Z M163 -113 C163 -167 118 -242 93 -242 C87 -242 81 -239 81 -233 C81 -226 90 -216 97 -205 C104 -197 115 -183 123 -163 C92 -161 69 -139 69 -113 C69 -87 90 -66 117 -66 C142 -66 163 -88 163 -113 L163 -113 Z " />
<glyph glyph-name="Lcaron" unicode="&#x13d;" horiz-adv-x="448" d="M437 33 C437 15 423 1 406 1 L118 1 C97 1 79 17 79 39 L79 683 C79 700 94 716 113 716 C131 716 145 700 145 683 L145 64 L406 64 C422 64 437 50 437 33 L437 33 Z M391 679 C391 614 346 520 322 520 C316 520 309 522 309 529 C309 544 318 557 327 573 C334 585 340 594 349 629 C320 632 297 653 297 679 C297 705 319 726 345 726 C371 726 391 705 391 679 L391 679 Z " />
<glyph glyph-name="lcaron" unicode="&#x13e;" horiz-adv-x="359" d="M82 90 L82 700 C82 717 96 733 114 733 C132 733 146 718 146 700 L146 90 C146 67 151 50 164 36 C166 33 168 26 168 22 C168 5 156 -7 139 -7 C117 -7 82 4 82 90 L82 90 Z M328 679 C328 614 283 520 259 520 C253 520 246 522 246 529 C246 544 255 557 264 573 C271 585 277 594 286 629 C257 632 234 653 234 679 C234 705 256 726 282 726 C308 726 328 705 328 679 L328 679 Z " />
<glyph glyph-name="Lslash" unicode="&#x141;" horiz-adv-x="494" d="M484 33 C484 15 470 1 453 1 L165 1 C144 1 126 17 126 39 L126 304 L74 271 C68 267 61 262 54 262 C37 262 20 271 20 292 C20 301 25 311 34 317 L126 377 L126 683 C126 700 141 716 160 716 C178 716 192 700 192 683 L192 420 L260 465 C268 470 274 474 285 474 C296 474 307 464 312 454 C313 450 313 448 313 443 C313 434 308 425 301 420 L192 348 L192 64 L453 64 C469 64 484 50 484 33 L484 33 Z " />
<glyph glyph-name="lslash" unicode="&#x142;" horiz-adv-x="337" d="M128 90 L128 309 L75 273 C69 269 61 264 55 264 C38 264 20 273 20 295 C20 304 25 313 35 319 L128 380 L128 700 C128 717 143 733 161 733 C179 733 193 718 193 700 L193 424 L262 469 C271 474 277 478 288 478 C298 478 310 468 315 458 C316 453 316 451 316 447 C316 438 311 429 303 424 L193 350 L193 90 C193 67 197 50 211 36 C213 33 215 26 215 22 C215 5 202 -7 186 -7 C163 -7 128 4 128 90 L128 90 Z " />
<glyph glyph-name="Nacute" unicode="&#x143;" horiz-adv-x="600" d="M489 -9 C476 -9 460 -2 454 10 L145 581 L145 25 C145 6 130 -9 111 -9 C93 -9 78 6 78 25 L78 678 C78 700 94 716 115 716 C130 716 144 708 151 695 L460 123 L460 682 C460 700 476 716 494 716 C512 716 526 700 526 682 L526 28 C526 7 511 -9 489 -9 L489 -9 Z M276 825 L363 916 C369 922 376 930 386 930 C400 930 411 916 411 903 C411 899 410 894 408 891 L326 804 C316 794 310 787 299 787 C284 787 272 800 272 815 C272 819 273 821 276 825 L276 825 Z " />
<glyph glyph-name="nacute" unicode="&#x144;" horiz-adv-x="509" d="M129 464 C178 498 230 513 279 513 C383 513 434 438 434 326 L434 25 C434 7 423 -6 402 -6 C381 -6 369 7 369 25 L369 326 C369 409 334 457 267 457 C225 457 183 438 145 409 C147 398 148 386 148 375 L148 25 C148 7 137 -6 116 -6 C94 -6 83 7 83 25 L83 375 C83 410 79 431 65 451 C61 456 59 462 59 468 C59 485 73 497 88 497 C101 497 118 486 129 464 L129 464 Z M190 625 L277 716 C283 722 290 730 300 730 C314 730 325 716 325 703 C325 699 324 694 322 691 L240 604 C230 594 224 587 213 587 C198 587 186 600 186 615 C186 619 187 621 190 625 L190 625 Z " />
<glyph glyph-name="uni0145" unicode="&#x145;" horiz-adv-x="600" d="M489 -9 C476 -9 460 -2 454 10 L145 581 L145 25 C145 6 130 -9 111 -9 C93 -9 78 6 78 25 L78 678 C78 700 94 716 115 716 C130 716 144 708 151 695 L460 123 L460 682 C460 700 476 716 494 716 C512 716 526 700 526 682 L526 28 C526 7 511 -9 489 -9 L489 -9 Z M349 -113 C349 -167 304 -242 279 -242 C273 -242 267 -239 267 -233 C267 -226 276 -216 283 -205 C290 -197 301 -183 309 -163 C278 -161 255 -139 255 -113 C255 -87 276 -66 303 -66 C328 -66 349 -88 349 -113 L349 -113 Z " />
<glyph glyph-name="uni0146" unicode="&#x146;" horiz-adv-x="509" d="M129 464 C178 498 230 513 279 513 C383 513 434 438 434 326 L434 25 C434 7 423 -6 402 -6 C381 -6 369 7 369 25 L369 326 C369 409 334 457 267 457 C225 457 183 438 145 409 C147 398 148 386 148 375 L148 25 C148 7 137 -6 116 -6 C94 -6 83 7 83 25 L83 375 C83 410 79 431 65 451 C61 456 59 462 59 468 C59 485 73 497 88 497 C101 497 118 486 129 464 L129 464 Z M303 -113 C303 -167 258 -242 233 -242 C227 -242 221 -239 221 -233 C221 -226 230 -216 237 -205 C244 -197 255 -183 263 -163 C232 -161 209 -139 209 -113 C209 -87 230 -66 257 -66 C282 -66 303 -88 303 -113 L303 -113 Z " />
<glyph glyph-name="Ncaron" unicode="&#x147;" horiz-adv-x="600" d="M489 -9 C476 -9 460 -2 454 10 L145 581 L145 25 C145 6 130 -9 111 -9 C93 -9 78 6 78 25 L78 678 C78 700 94 716 115 716 C130 716 144 708 151 695 L460 123 L460 682 C460 700 476 716 494 716 C512 716 526 700 526 682 L526 28 C526 7 511 -9 489 -9 L489 -9 Z M302 775 C294 775 287 778 283 782 L193 857 C183 866 174 875 174 886 C174 899 188 908 198 908 C204 908 208 905 212 902 L302 829 L392 902 C396 906 401 908 406 908 C418 908 429 899 429 886 C429 874 421 866 411 857 L321 782 C317 778 310 775 302 775 L302 775 Z " />
<glyph glyph-name="ncaron" unicode="&#x148;" horiz-adv-x="509" d="M129 464 C178 498 230 513 279 513 C383 513 434 438 434 326 L434 25 C434 7 423 -6 402 -6 C381 -6 369 7 369 25 L369 326 C369 409 334 457 267 457 C225 457 183 438 145 409 C147 398 148 386 148 375 L148 25 C148 7 137 -6 116 -6 C94 -6 83 7 83 25 L83 375 C83 410 79 431 65 451 C61 456 59 462 59 468 C59 485 73 497 88 497 C101 497 118 486 129 464 L129 464 Z M256 575 C248 575 241 578 237 582 L147 657 C137 666 128 675 128 686 C128 699 142 708 152 708 C158 708 162 705 166 702 L256 629 L346 702 C350 706 355 708 360 708 C372 708 383 699 383 686 C383 674 375 666 365 657 L275 582 C271 578 264 575 256 575 L256 575 Z " />
<glyph glyph-name="Omacron" unicode="&#x14c;" horiz-adv-x="551" d="M278 -9 C127 -9 50 103 50 244 L50 463 C50 601 114 716 278 716 C440 716 505 601 505 463 L505 244 C505 103 429 -9 278 -9 L278 -9 Z M278 652 C159 652 117 576 117 463 L117 244 C117 133 168 55 278 55 C388 55 438 133 438 244 L438 463 C438 576 395 652 278 652 L278 652 Z M433 844 C433 827 421 815 405 815 L150 815 C133 815 120 827 120 844 C120 860 133 874 150 874 L405 874 C421 874 433 860 433 844 L433 844 Z " />
<glyph glyph-name="omacron" unicode="&#x14d;" horiz-adv-x="464" d="M235 -7 C115 -7 50 69 50 168 L50 340 C50 439 115 516 235 516 C356 516 420 439 420 340 L420 168 C420 69 356 -7 235 -7 L235 -7 Z M235 52 C315 52 355 96 355 168 L355 341 C355 413 315 458 235 458 C156 458 115 413 115 341 L115 168 C115 96 156 52 235 52 L235 52 Z M390 644 C390 627 378 615 362 615 L107 615 C90 615 77 627 77 644 C77 660 90 674 107 674 L362 674 C378 674 390 660 390 644 L390 644 Z " />
<glyph glyph-name="Obreve" unicode="&#x14e;" horiz-adv-x="551" d="M278 -9 C127 -9 50 103 50 244 L50 463 C50 601 114 716 278 716 C440 716 505 601 505 463 L505 244 C505 103 429 -9 278 -9 L278 -9 Z M278 652 C159 652 117 576 117 463 L117 244 C117 133 168 55 278 55 C388 55 438 133 438 244 L438 463 C438 576 395 652 278 652 L278 652 Z M277 832 C301 832 326 845 349 877 C356 887 365 891 374 891 C387 891 399 883 393 862 C379 812 321 785 277 785 C234 785 169 811 159 862 C155 880 169 891 180 891 C189 891 198 887 204 877 C228 845 250 832 277 832 L277 832 Z " />
<glyph glyph-name="obreve" unicode="&#x14f;" horiz-adv-x="464" d="M235 -7 C115 -7 50 69 50 168 L50 340 C50 439 115 516 235 516 C356 516 420 439 420 340 L420 168 C420 69 356 -7 235 -7 L235 -7 Z M235 52 C315 52 355 96 355 168 L355 341 C355 413 315 458 235 458 C156 458 115 413 115 341 L115 168 C115 96 156 52 235 52 L235 52 Z M234 632 C258 632 283 645 306 677 C313 687 322 691 331 691 C344 691 356 683 350 662 C336 612 278 585 234 585 C191 585 126 611 116 662 C112 680 126 691 137 691 C146 691 155 687 161 677 C185 645 207 632 234 632 L234 632 Z " />
<glyph glyph-name="Ohungarumlaut" unicode="&#x150;" horiz-adv-x="551" d="M278 -9 C127 -9 50 103 50 244 L50 463 C50 601 114 716 278 716 C440 716 505 601 505 463 L505 244 C505 103 429 -9 278 -9 L278 -9 Z M278 652 C159 652 117 576 117 463 L117 244 C117 133 168 55 278 55 C388 55 438 133 438 244 L438 463 C438 576 395 652 278 652 L278 652 Z M315 815 L381 913 C388 924 395 937 408 937 C421 937 436 923 436 910 C436 907 436 904 434 901 L362 794 C356 785 351 780 341 780 C326 780 313 792 313 805 C313 808 313 812 315 815 L315 815 Z M177 815 L247 919 C253 929 259 937 270 937 C287 937 297 919 297 908 C297 908 297 901 296 900 C284 880 255 833 231 802 C220 788 213 780 202 780 C188 780 175 792 175 807 C175 811 176 813 177 815 L177 815 Z " />
<glyph glyph-name="ohungarumlaut" unicode="&#x151;" horiz-adv-x="464" d="M235 -7 C115 -7 50 69 50 168 L50 340 C50 439 115 516 235 516 C356 516 420 439 420 340 L420 168 C420 69 356 -7 235 -7 L235 -7 Z M235 52 C315 52 355 96 355 168 L355 341 C355 413 315 458 235 458 C156 458 115 413 115 341 L115 168 C115 96 156 52 235 52 L235 52 Z M279 615 L345 713 C352 724 359 737 372 737 C385 737 400 723 400 710 C400 707 400 704 398 701 L326 594 C320 585 315 580 305 580 C290 580 277 592 277 605 C277 608 277 612 279 615 L279 615 Z M141 615 L211 719 C217 729 223 737 234 737 C251 737 261 719 261 708 C261 708 261 701 260 700 C248 680 219 633 195 602 C184 588 177 580 166 580 C152 580 139 592 139 607 C139 611 140 613 141 615 L141 615 Z " />
<glyph glyph-name="OE" unicode="&#x152;" horiz-adv-x="756" d="M726 35 C726 15 712 1 694 1 L454 1 C424 1 398 13 396 56 C358 16 311 -9 256 -9 C119 -9 49 95 49 224 L49 483 C49 611 107 716 256 716 C311 716 357 694 393 657 C398 682 416 706 437 706 L683 706 C702 706 716 691 716 672 C716 655 702 642 683 642 L463 642 L463 387 L664 387 C680 387 696 373 696 355 C696 337 681 323 664 323 L463 323 L463 65 L694 65 C711 65 726 51 726 35 L726 35 Z M256 652 C152 652 115 584 115 483 L115 224 C115 125 160 55 256 55 C352 55 396 125 396 224 L396 483 C396 584 360 652 256 652 L256 652 Z " />
<glyph glyph-name="oe" unicode="&#x153;" horiz-adv-x="731" d="M229 -7 C114 -7 48 70 48 168 L48 340 C48 438 114 516 229 516 C303 516 355 478 385 418 C413 477 464 515 538 515 C642 515 697 452 697 355 C697 265 648 210 531 210 C499 210 457 213 418 221 L418 150 C418 89 459 48 538 48 C585 48 613 61 649 77 C651 78 656 80 660 80 C676 80 688 66 688 52 C688 7 581 -7 532 -7 C461 -7 411 31 384 88 C355 30 302 -7 229 -7 L229 -7 Z M233 52 C313 52 353 96 353 168 L353 341 C353 413 313 458 233 458 C154 458 113 413 113 341 L113 168 C113 96 154 52 233 52 L233 52 Z M633 355 C633 428 596 458 532 458 C460 458 418 418 418 356 L418 271 C461 266 514 263 534 263 C619 263 633 308 633 355 L633 355 Z " />
<glyph glyph-name="Racute" unicode="&#x154;" horiz-adv-x="575" d="M511 509 C511 405 448 340 349 320 L518 42 L517 43 C519 38 521 30 521 22 C521 5 498 -8 485 -8 C474 -8 464 -2 458 7 L275 318 L145 318 L145 26 C145 7 130 -9 111 -9 C94 -9 78 6 78 26 L78 664 C78 687 97 706 118 706 L296 706 C459 706 511 607 511 509 L511 509 Z M444 509 C444 573 417 642 292 642 L145 642 L145 381 L298 381 C393 381 444 425 444 509 L444 509 Z M223 825 L310 916 C316 922 323 930 333 930 C347 930 358 916 358 903 C358 899 357 894 355 891 L273 804 C263 794 257 787 246 787 C231 787 219 800 219 815 C219 819 220 821 223 825 L223 825 Z " />
<glyph glyph-name="racute" unicode="&#x155;" horiz-adv-x="337" d="M149 373 L149 25 C149 7 134 -7 117 -7 C98 -7 84 7 84 25 L84 373 C84 408 80 429 66 449 C62 454 60 460 60 466 C60 483 74 495 90 495 C103 495 118 482 129 464 C176 494 235 511 272 511 C307 511 318 497 318 479 C318 459 303 444 286 445 C241 446 203 446 148 405 L148 404 C148 404 149 403 149 373 L149 373 Z M168 625 L255 716 C261 722 268 730 278 730 C292 730 303 716 303 703 C303 699 302 694 300 691 L218 604 C208 594 202 587 191 587 C176 587 164 600 164 615 C164 619 165 621 168 625 L168 625 Z " />
<glyph glyph-name="uni0156" unicode="&#x156;" horiz-adv-x="575" d="M511 509 C511 405 448 340 349 320 L518 42 L517 43 C519 38 521 30 521 22 C521 5 498 -8 485 -8 C474 -8 464 -2 458 7 L275 318 L145 318 L145 26 C145 7 130 -9 111 -9 C94 -9 78 6 78 26 L78 664 C78 687 97 706 118 706 L296 706 C459 706 511 607 511 509 L511 509 Z M444 509 C444 573 417 642 292 642 L145 642 L145 381 L298 381 C393 381 444 425 444 509 L444 509 Z M336 -113 C336 -167 291 -242 266 -242 C260 -242 254 -239 254 -233 C254 -226 263 -216 270 -205 C277 -197 288 -183 296 -163 C265 -161 242 -139 242 -113 C242 -87 263 -66 290 -66 C315 -66 336 -88 336 -113 L336 -113 Z " />
<glyph glyph-name="uni0157" unicode="&#x157;" horiz-adv-x="337" d="M149 373 L149 25 C149 7 134 -7 117 -7 C98 -7 84 7 84 25 L84 373 C84 408 80 429 66 449 C62 454 60 460 60 466 C60 483 74 495 90 495 C103 495 118 482 129 464 C176 494 235 511 272 511 C307 511 318 497 318 479 C318 459 303 444 286 445 C241 446 203 446 148 405 L148 404 C148 404 149 403 149 373 L149 373 Z M163 -113 C163 -167 118 -242 93 -242 C87 -242 81 -239 81 -233 C81 -226 90 -216 97 -205 C104 -197 115 -183 123 -163 C92 -161 69 -139 69 -113 C69 -87 90 -66 117 -66 C142 -66 163 -88 163 -113 L163 -113 Z " />
<glyph glyph-name="Rcaron" unicode="&#x158;" horiz-adv-x="575" d="M511 509 C511 405 448 340 349 320 L518 42 L517 43 C519 38 521 30 521 22 C521 5 498 -8 485 -8 C474 -8 464 -2 458 7 L275 318 L145 318 L145 26 C145 7 130 -9 111 -9 C94 -9 78 6 78 26 L78 664 C78 687 97 706 118 706 L296 706 C459 706 511 607 511 509 L511 509 Z M444 509 C444 573 417 642 292 642 L145 642 L145 381 L298 381 C393 381 444 425 444 509 L444 509 Z M289 775 C281 775 274 778 270 782 L180 857 C170 866 161 875 161 886 C161 899 175 908 185 908 C191 908 195 905 199 902 L289 829 L379 902 C383 906 388 908 393 908 C405 908 416 899 416 886 C416 874 408 866 398 857 L308 782 C304 778 297 775 289 775 L289 775 Z " />
<glyph glyph-name="rcaron" unicode="&#x159;" horiz-adv-x="337" d="M149 373 L149 25 C149 7 134 -7 117 -7 C98 -7 84 7 84 25 L84 373 C84 408 80 429 66 449 C62 454 60 460 60 466 C60 483 74 495 90 495 C103 495 118 482 129 464 C176 494 235 511 272 511 C307 511 318 497 318 479 C318 459 303 444 286 445 C241 446 203 446 148 405 L148 404 C148 404 149 403 149 373 L149 373 Z M171 575 C163 575 156 578 152 582 L62 657 C52 666 43 675 43 686 C43 699 57 708 67 708 C73 708 77 705 81 702 L171 629 L261 702 C265 706 270 708 275 708 C287 708 298 699 298 686 C298 674 290 666 280 657 L190 582 C186 578 179 575 171 575 L171 575 Z " />
<glyph glyph-name="Sacute" unicode="&#x15a;" horiz-adv-x="486" d="M372 188 C372 256 337 284 310 298 C289 309 259 320 230 330 C142 360 47 391 47 524 C47 644 124 716 247 716 C296 716 413 705 413 654 C413 638 401 623 380 623 C369 623 356 627 345 632 C322 641 294 652 253 652 C183 652 117 624 117 529 C117 458 156 433 181 420 C203 409 233 397 261 388 C346 360 443 323 443 195 C443 65 351 -9 227 -9 C164 -9 46 9 46 58 C46 75 60 91 76 91 C82 91 98 85 113 80 C139 69 176 55 228 55 C324 55 372 104 372 188 L372 188 Z M224 825 L311 916 C317 922 324 930 334 930 C348 930 359 916 359 903 C359 899 358 894 356 891 L274 804 C264 794 258 787 247 787 C232 787 220 800 220 815 C220 819 221 821 224 825 L224 825 Z " />
<glyph glyph-name="sacute" unicode="&#x15b;" horiz-adv-x="406" d="M59 374 C59 459 114 515 218 515 C269 515 347 503 347 465 C347 449 335 436 318 436 C312 436 308 438 303 440 C280 451 260 460 221 460 C153 460 122 432 122 379 C122 343 136 325 175 304 C254 265 362 255 362 135 C362 47 306 -7 197 -7 C146 -7 52 3 52 44 C52 59 64 74 83 74 C85 74 86 74 89 73 C119 61 152 48 197 48 C258 48 299 73 299 132 C299 174 280 193 258 205 C180 244 59 254 59 374 L59 374 Z M182 625 L269 716 C275 722 282 730 292 730 C306 730 317 716 317 703 C317 699 316 694 314 691 L232 604 C222 594 216 587 205 587 C190 587 178 600 178 615 C178 619 179 621 182 625 L182 625 Z " />
<glyph glyph-name="Scircumflex" unicode="&#x15c;" horiz-adv-x="486" d="M372 188 C372 256 337 284 310 298 C289 309 259 320 230 330 C142 360 47 391 47 524 C47 644 124 716 247 716 C296 716 413 705 413 654 C413 638 401 623 380 623 C369 623 356 627 345 632 C322 641 294 652 253 652 C183 652 117 624 117 529 C117 458 156 433 181 420 C203 409 233 397 261 388 C346 360 443 323 443 195 C443 65 351 -9 227 -9 C164 -9 46 9 46 58 C46 75 60 91 76 91 C82 91 98 85 113 80 C139 69 176 55 228 55 C324 55 372 104 372 188 L372 188 Z M245 853 L162 785 C161 783 153 782 149 782 C140 782 131 792 131 801 C131 808 139 819 147 825 L228 894 C232 897 238 901 245 901 C251 901 258 898 262 894 L343 825 C350 819 359 808 359 801 C359 792 350 782 340 782 C336 782 329 783 328 785 L245 853 L245 853 Z " />
<glyph glyph-name="scircumflex" unicode="&#x15d;" horiz-adv-x="406" d="M59 374 C59 459 114 515 218 515 C269 515 347 503 347 465 C347 449 335 436 318 436 C312 436 308 438 303 440 C280 451 260 460 221 460 C153 460 122 432 122 379 C122 343 136 325 175 304 C254 265 362 255 362 135 C362 47 306 -7 197 -7 C146 -7 52 3 52 44 C52 59 64 74 83 74 C85 74 86 74 89 73 C119 61 152 48 197 48 C258 48 299 73 299 132 C299 174 280 193 258 205 C180 244 59 254 59 374 L59 374 Z M205 653 L122 585 C121 583 113 582 109 582 C100 582 91 592 91 601 C91 608 99 619 107 625 L188 694 C192 697 198 701 205 701 C211 701 218 698 222 694 L303 625 C310 619 319 608 319 601 C319 592 310 582 300 582 C296 582 289 583 288 585 L205 653 L205 653 Z " />
<glyph glyph-name="Scedilla" unicode="&#x15e;" horiz-adv-x="486" d="M356 -138 C356 -178 322 -217 253 -217 C234 -217 227 -217 223 -216 C197 -213 171 -196 180 -178 L180 -179 C185 -171 193 -172 208 -176 L226 -180 C279 -190 305 -157 305 -131 C305 -101 281 -89 236 -87 C211 -86 203 -81 206 -62 L214 -9 C146 -6 46 13 46 58 C46 75 60 91 76 91 C82 91 98 85 113 80 C139 69 176 55 228 55 C324 55 372 104 372 188 C372 256 337 284 310 298 C289 309 259 320 230 330 C142 360 47 391 47 524 C47 644 124 716 247 716 C296 716 413 705 413 654 C413 638 401 623 380 623 C369 623 356 627 345 632 C322 641 294 652 253 652 C183 652 117 624 117 529 C117 458 156 433 181 420 C203 409 233 397 261 388 C346 360 443 323 443 195 C443 76 363 2 251 -8 L244 -55 C327 -56 356 -89 356 -138 L356 -138 Z " />
<glyph glyph-name="scedilla" unicode="&#x15f;" horiz-adv-x="406" d="M318 -139 C318 -179 284 -218 214 -218 C196 -218 188 -218 184 -217 C158 -214 132 -198 141 -179 L141 -180 C146 -172 154 -173 169 -177 L187 -181 C241 -192 267 -159 267 -132 C267 -102 243 -90 198 -88 C172 -87 164 -81 167 -63 L176 -8 C123 -4 52 9 52 44 C52 59 64 74 83 74 C85 74 86 74 89 73 C119 61 152 48 197 48 C258 48 299 73 299 132 C299 173 280 191 258 203 C246 209 226 216 202 225 L203 225 C138 248 59 275 59 374 C59 459 114 515 218 515 C269 515 347 503 347 465 C347 449 335 436 318 436 C312 436 308 438 303 440 C280 451 260 460 221 460 C153 460 122 432 122 379 C122 344 136 326 175 306 C187 300 205 294 225 287 L224 287 C288 263 362 236 362 135 C362 53 311 0 212 -7 L205 -56 C289 -57 318 -90 318 -139 L318 -139 Z " />
<glyph glyph-name="Scaron" unicode="&#x160;" horiz-adv-x="486" d="M372 188 C372 256 337 284 310 298 C289 309 259 320 230 330 C142 360 47 391 47 524 C47 644 124 716 247 716 C296 716 413 705 413 654 C413 638 401 623 380 623 C369 623 356 627 345 632 C322 641 294 652 253 652 C183 652 117 624 117 529 C117 458 156 433 181 420 C203 409 233 397 261 388 C346 360 443 323 443 195 C443 65 351 -9 227 -9 C164 -9 46 9 46 58 C46 75 60 91 76 91 C82 91 98 85 113 80 C139 69 176 55 228 55 C324 55 372 104 372 188 L372 188 Z M245 775 C237 775 230 778 226 782 L136 857 C126 866 117 875 117 886 C117 899 131 908 141 908 C147 908 151 905 155 902 L245 829 L335 902 C339 906 344 908 349 908 C361 908 372 899 372 886 C372 874 364 866 354 857 L264 782 C260 778 253 775 245 775 L245 775 Z " />
<glyph glyph-name="scaron" unicode="&#x161;" horiz-adv-x="406" d="M59 374 C59 459 114 515 218 515 C269 515 347 503 347 465 C347 449 335 436 318 436 C312 436 308 438 303 440 C280 451 260 460 221 460 C153 460 122 432 122 379 C122 343 136 325 175 304 C254 265 362 255 362 135 C362 47 306 -7 197 -7 C146 -7 52 3 52 44 C52 59 64 74 83 74 C85 74 86 74 89 73 C119 61 152 48 197 48 C258 48 299 73 299 132 C299 174 280 193 258 205 C180 244 59 254 59 374 L59 374 Z M205 575 C197 575 190 578 186 582 L96 657 C86 666 77 675 77 686 C77 699 91 708 101 708 C107 708 111 705 115 702 L205 629 L295 702 C299 706 304 708 309 708 C321 708 332 699 332 686 C332 674 324 666 314 657 L224 582 C220 578 213 575 205 575 L205 575 Z " />
<glyph glyph-name="uni0162" unicode="&#x162;" horiz-adv-x="483" d="M375 -138 C375 -178 342 -217 272 -217 C254 -217 247 -217 243 -216 C216 -213 190 -196 200 -178 L200 -179 C205 -171 213 -172 227 -176 L246 -180 C299 -190 324 -157 324 -131 C324 -101 301 -89 256 -87 C230 -86 222 -81 225 -62 L234 -8 C219 -2 210 10 210 24 L210 642 L64 642 C44 642 30 656 30 673 C30 688 45 706 64 706 L423 706 C441 706 457 692 457 673 C457 656 442 642 423 642 L276 642 L276 24 C276 17 274 12 272 8 L263 -55 C347 -56 375 -89 375 -138 L375 -138 Z " />
<glyph glyph-name="uni0163" unicode="&#x163;" horiz-adv-x="321" d="M300 -139 C300 -179 266 -218 196 -218 C177 -218 170 -218 166 -217 C139 -214 113 -198 123 -179 L123 -180 C128 -172 136 -173 151 -177 L169 -181 C223 -192 248 -159 248 -132 C248 -102 225 -90 179 -88 C154 -86 146 -81 149 -63 C151 -42 154 -19 162 10 C98 41 81 104 81 202 L81 633 C81 650 92 665 113 665 C134 665 145 650 145 633 L145 483 L261 483 C277 483 290 470 290 452 C290 436 277 423 261 423 L145 423 L145 209 C145 98 157 57 238 57 L247 57 C251 57 255 58 258 58 C277 58 303 55 303 28 C303 0 277 -3 253 -3 C226 -3 208 -1 192 1 C187 -20 186 -38 189 -56 C272 -57 300 -90 300 -139 L300 -139 Z " />
<glyph glyph-name="Tcaron" unicode="&#x164;" horiz-adv-x="483" d="M210 24 L210 642 L64 642 C44 642 30 656 30 673 C30 688 45 706 64 706 L423 706 C441 706 457 692 457 673 C457 656 442 642 423 642 L276 642 L276 24 C276 6 262 -9 244 -9 C225 -9 210 6 210 24 L210 24 Z M243 775 C235 775 228 778 224 782 L134 857 C124 866 115 875 115 886 C115 899 129 908 139 908 C145 908 149 905 153 902 L243 829 L333 902 C337 906 342 908 347 908 C359 908 370 899 370 886 C370 874 362 866 352 857 L262 782 C258 778 251 775 243 775 L243 775 Z " />
<glyph glyph-name="tcaron" unicode="&#x165;" horiz-adv-x="431" d="M81 202 L81 633 C81 650 92 665 113 665 C134 665 145 650 145 633 L145 483 L261 483 C277 483 290 470 290 452 C290 436 277 423 261 423 L145 423 L145 209 C145 98 157 57 238 57 C245 57 251 58 258 58 C277 58 303 55 303 28 C303 0 277 -3 253 -3 C115 -3 81 65 81 202 L81 202 Z M408 679 C408 614 363 520 339 520 C333 520 326 522 326 529 C326 544 335 557 344 573 C351 585 357 594 366 629 C337 632 314 653 314 679 C314 705 336 726 362 726 C388 726 408 705 408 679 L408 679 Z " />
<glyph glyph-name="Utilde" unicode="&#x168;" horiz-adv-x="572" d="M507 228 C507 91 426 -9 289 -9 C148 -9 70 92 70 228 L70 680 C70 701 86 716 105 716 C123 716 137 700 137 680 L137 228 C137 126 186 55 289 55 C392 55 439 128 439 228 L439 680 C439 699 454 716 472 716 C491 716 507 699 507 680 L507 228 L507 228 Z M421 856 C421 825 378 802 344 802 C322 802 302 811 285 820 C272 826 263 835 241 835 C229 835 215 832 196 817 C189 811 185 808 177 808 C165 808 154 815 154 831 C154 859 191 887 229 887 C249 887 267 879 287 868 C304 859 316 855 332 854 C359 854 370 862 380 871 C385 875 393 883 401 883 C409 883 421 873 421 856 L421 856 Z " />
<glyph glyph-name="utilde" unicode="&#x169;" horiz-adv-x="509" d="M366 120 L366 480 C366 498 377 512 399 512 C420 512 431 498 431 480 L431 120 C431 70 436 62 442 55 C448 48 457 37 457 27 C457 11 443 -1 427 -1 C410 -1 397 12 384 32 C336 4 283 -7 236 -7 C132 -7 79 68 79 179 L79 480 C79 498 91 512 112 512 C133 512 144 498 144 480 L144 179 C144 97 180 49 247 49 C289 49 331 63 368 87 C367 97 366 107 366 120 L366 120 Z M389 656 C389 625 346 602 312 602 C290 602 270 611 253 620 C240 626 231 635 209 635 C197 635 183 632 164 617 C157 611 153 608 145 608 C133 608 122 615 122 631 C122 659 159 687 197 687 C217 687 235 679 255 668 C272 659 284 655 300 654 C327 654 338 662 348 671 C353 675 361 683 369 683 C377 683 389 673 389 656 L389 656 Z " />
<glyph glyph-name="Umacron" unicode="&#x16a;" horiz-adv-x="572" d="M507 228 C507 91 426 -9 289 -9 C148 -9 70 92 70 228 L70 680 C70 701 86 716 105 716 C123 716 137 700 137 680 L137 228 C137 126 186 55 289 55 C392 55 439 128 439 228 L439 680 C439 699 454 716 472 716 C491 716 507 699 507 680 L507 228 L507 228 Z M444 844 C444 827 432 815 416 815 L161 815 C144 815 131 827 131 844 C131 860 144 874 161 874 L416 874 C432 874 444 860 444 844 L444 844 Z " />
<glyph glyph-name="umacron" unicode="&#x16b;" horiz-adv-x="509" d="M366 120 L366 480 C366 498 377 512 399 512 C420 512 431 498 431 480 L431 120 C431 70 436 62 442 55 C448 48 457 37 457 27 C457 11 443 -1 427 -1 C410 -1 397 12 384 32 C336 4 283 -7 236 -7 C132 -7 79 68 79 179 L79 480 C79 498 91 512 112 512 C133 512 144 498 144 480 L144 179 C144 97 180 49 247 49 C289 49 331 63 368 87 C367 97 366 107 366 120 L366 120 Z M412 644 C412 627 400 615 384 615 L129 615 C112 615 99 627 99 644 C99 660 112 674 129 674 L384 674 C400 674 412 660 412 644 L412 644 Z " />
<glyph glyph-name="Ubreve" unicode="&#x16c;" horiz-adv-x="572" d="M507 228 C507 91 426 -9 289 -9 C148 -9 70 92 70 228 L70 680 C70 701 86 716 105 716 C123 716 137 700 137 680 L137 228 C137 126 186 55 289 55 C392 55 439 128 439 228 L439 680 C439 699 454 716 472 716 C491 716 507 699 507 680 L507 228 L507 228 Z M288 832 C312 832 337 845 360 877 C367 887 376 891 385 891 C398 891 410 883 404 862 C390 812 332 785 288 785 C245 785 180 811 170 862 C166 880 180 891 191 891 C200 891 209 887 215 877 C239 845 261 832 288 832 L288 832 Z " />
<glyph glyph-name="ubreve" unicode="&#x16d;" horiz-adv-x="509" d="M366 120 L366 480 C366 498 377 512 399 512 C420 512 431 498 431 480 L431 120 C431 70 436 62 442 55 C448 48 457 37 457 27 C457 11 443 -1 427 -1 C410 -1 397 12 384 32 C336 4 283 -7 236 -7 C132 -7 79 68 79 179 L79 480 C79 498 91 512 112 512 C133 512 144 498 144 480 L144 179 C144 97 180 49 247 49 C289 49 331 63 368 87 C367 97 366 107 366 120 L366 120 Z M256 632 C280 632 305 645 328 677 C335 687 344 691 353 691 C366 691 378 683 372 662 C358 612 300 585 256 585 C213 585 148 611 138 662 C134 680 148 691 159 691 C168 691 177 687 183 677 C207 645 229 632 256 632 L256 632 Z " />
<glyph glyph-name="Uring" unicode="&#x16e;" horiz-adv-x="572" d="M507 228 C507 91 426 -9 289 -9 C148 -9 70 92 70 228 L70 680 C70 701 86 716 105 716 C123 716 137 700 137 680 L137 228 C137 126 186 55 289 55 C392 55 439 128 439 228 L439 680 C439 699 454 716 472 716 C491 716 507 699 507 680 L507 228 L507 228 Z M382 851 C382 799 341 758 289 758 C236 758 194 799 194 851 C194 903 236 945 289 945 C341 945 382 903 382 851 L382 851 Z M351 851 C351 886 324 915 289 915 C254 915 226 886 226 851 C226 816 254 789 289 789 C324 789 351 816 351 851 L351 851 Z " />
<glyph glyph-name="uring" unicode="&#x16f;" horiz-adv-x="509" d="M366 120 L366 480 C366 498 377 512 399 512 C420 512 431 498 431 480 L431 120 C431 70 436 62 442 55 C448 48 457 37 457 27 C457 11 443 -1 427 -1 C410 -1 397 12 384 32 C336 4 283 -7 236 -7 C132 -7 79 68 79 179 L79 480 C79 498 91 512 112 512 C133 512 144 498 144 480 L144 179 C144 97 180 49 247 49 C289 49 331 63 368 87 C367 97 366 107 366 120 L366 120 Z M351 651 C351 599 310 558 258 558 C205 558 163 599 163 651 C163 703 205 745 258 745 C310 745 351 703 351 651 L351 651 Z M320 651 C320 686 293 715 258 715 C223 715 195 686 195 651 C195 616 223 589 258 589 C293 589 320 616 320 651 L320 651 Z " />
<glyph glyph-name="Uhungarumlaut" unicode="&#x170;" horiz-adv-x="572" d="M507 228 C507 91 426 -9 289 -9 C148 -9 70 92 70 228 L70 680 C70 701 86 716 105 716 C123 716 137 700 137 680 L137 228 C137 126 186 55 289 55 C392 55 439 128 439 228 L439 680 C439 699 454 716 472 716 C491 716 507 699 507 680 L507 228 L507 228 Z M334 815 L400 913 C407 924 414 937 427 937 C440 937 455 923 455 910 C455 907 455 904 453 901 L381 794 C375 785 370 780 360 780 C345 780 332 792 332 805 C332 808 332 812 334 815 L334 815 Z M196 815 L266 919 C272 929 278 937 289 937 C306 937 316 919 316 908 C316 908 316 901 315 900 C303 880 274 833 250 802 C239 788 232 780 221 780 C207 780 194 792 194 807 C194 811 195 813 196 815 L196 815 Z " />
<glyph glyph-name="uhungarumlaut" unicode="&#x171;" horiz-adv-x="509" d="M366 120 L366 480 C366 498 377 512 399 512 C420 512 431 498 431 480 L431 120 C431 70 436 62 442 55 C448 48 457 37 457 27 C457 11 443 -1 427 -1 C410 -1 397 12 384 32 C336 4 283 -7 236 -7 C132 -7 79 68 79 179 L79 480 C79 498 91 512 112 512 C133 512 144 498 144 480 L144 179 C144 97 180 49 247 49 C289 49 331 63 368 87 C367 97 366 107 366 120 L366 120 Z M300 615 L366 713 C373 724 380 737 393 737 C406 737 421 723 421 710 C421 707 421 704 419 701 L347 594 C341 585 336 580 326 580 C311 580 298 592 298 605 C298 608 298 612 300 615 L300 615 Z M162 615 L232 719 C238 729 244 737 255 737 C272 737 282 719 282 708 C282 708 282 701 281 700 C269 680 240 633 216 602 C205 588 198 580 187 580 C173 580 160 592 160 607 C160 611 161 613 162 615 L162 615 Z " />
<glyph glyph-name="Uogonek" unicode="&#x172;" horiz-adv-x="572" d="M507 228 C507 126 462 45 383 9 C366 -24 343 -64 343 -98 C343 -128 361 -151 396 -151 C413 -151 420 -149 427 -148 C432 -147 436 -146 439 -146 C451 -146 459 -156 459 -167 C459 -194 417 -198 388 -198 C329 -198 290 -172 290 -114 C290 -83 305 -45 330 -7 C312 -9 301 -9 289 -9 C148 -9 70 92 70 228 L70 680 C70 701 86 716 105 716 C123 716 137 700 137 680 L137 228 C137 126 186 55 289 55 C392 55 439 128 439 228 L439 680 C439 699 454 716 472 716 C491 716 507 699 507 680 L507 228 L507 228 Z " />
<glyph glyph-name="uogonek" unicode="&#x173;" horiz-adv-x="509" d="M526 -168 C526 -196 484 -200 455 -200 C395 -200 356 -173 356 -115 C356 -79 378 -36 409 3 C399 11 391 21 385 32 C335 5 282 -7 235 -7 C131 -7 79 68 79 179 L79 480 C79 498 90 512 112 512 C132 512 144 498 144 480 L144 179 C144 97 180 49 247 49 C289 49 331 63 368 86 C365 101 365 110 365 120 L365 480 C365 498 377 512 398 512 C420 512 430 498 430 480 L430 120 C430 70 435 62 442 55 C452 44 450 45 451 43 L450 44 C453 39 456 33 456 27 C456 18 452 11 447 5 C426 -23 410 -66 410 -99 C410 -129 427 -153 463 -153 C480 -153 487 -150 494 -149 C499 -148 503 -147 507 -147 C518 -147 526 -158 526 -168 L526 -168 Z " />
<glyph glyph-name="Wcircumflex" unicode="&#x174;" horiz-adv-x="776" d="M517 33 L392 587 C355 420 303 198 266 32 C260 14 247 -9 219 -9 C194 -9 178 9 171 32 L18 680 L18 684 C18 702 39 712 57 712 C69 712 82 702 87 688 L221 110 L346 662 C354 695 364 716 392 716 C419 716 430 694 437 662 L564 109 L697 688 C702 702 712 712 724 712 C742 712 765 703 765 683 C765 682 765 677 764 674 L764 673 L612 32 C606 11 590 -9 565 -9 C539 -9 523 12 517 33 L517 33 Z M390 853 L307 785 C306 783 298 782 294 782 C285 782 276 792 276 801 C276 808 284 819 292 825 L373 894 C377 897 383 901 390 901 C396 901 403 898 407 894 L488 825 C495 819 504 808 504 801 C504 792 495 782 485 782 C481 782 474 783 473 785 L390 853 L390 853 Z " />
<glyph glyph-name="wcircumflex" unicode="&#x175;" horiz-adv-x="655" d="M636 477 L517 33 C509 7 499 -7 473 -7 C456 -7 439 4 433 22 L334 411 C305 294 268 138 234 22 C229 4 214 -7 193 -7 C170 -7 155 9 148 33 L28 479 L28 481 C28 497 42 512 61 512 C73 512 86 502 91 489 L194 86 C233 228 264 358 295 481 C300 498 313 512 334 512 C353 512 366 498 371 481 C394 383 421 281 473 86 L575 489 C578 502 592 512 605 512 C622 512 636 498 636 479 L636 477 L636 477 Z M329 653 L246 585 C245 583 237 582 233 582 C224 582 215 592 215 601 C215 608 223 619 231 625 L312 694 C316 697 322 701 329 701 C335 701 342 698 346 694 L427 625 C434 619 443 608 443 601 C443 592 434 582 424 582 C420 582 413 583 412 585 L329 653 L329 653 Z " />
<glyph glyph-name="Ycircumflex" unicode="&#x176;" horiz-adv-x="476" d="M241 -9 C221 -9 206 6 206 26 L206 279 L24 665 C22 670 20 677 20 682 C20 700 37 716 55 716 C64 716 74 712 79 703 L79 704 L241 353 L402 704 L402 703 C407 712 417 716 427 716 C444 716 460 700 460 682 C460 677 458 669 457 665 L274 275 L274 26 C274 7 260 -9 241 -9 L241 -9 Z M240 853 L157 785 C156 783 148 782 144 782 C135 782 126 792 126 801 C126 808 134 819 142 825 L223 894 C227 897 233 901 240 901 C246 901 253 898 257 894 L338 825 C345 819 354 808 354 801 C354 792 345 782 335 782 C331 782 324 783 323 785 L240 853 L240 853 Z " />
<glyph glyph-name="ycircumflex" unicode="&#x177;" horiz-adv-x="411" d="M398 469 L272 60 C226 -86 180 -202 57 -202 C37 -202 23 -189 23 -171 C23 -156 34 -141 53 -140 C124 -137 153 -103 186 -5 L22 471 C19 474 19 479 19 482 C19 500 34 512 52 512 C64 512 76 503 81 491 L217 76 C253 203 301 363 337 491 C343 502 355 512 367 512 C383 512 399 499 399 479 C399 474 398 471 398 469 L398 469 Z M182 653 L99 585 C98 583 90 582 86 582 C77 582 68 592 68 601 C68 608 76 619 84 625 L165 694 C169 697 175 701 182 701 C188 701 195 698 199 694 L280 625 C287 619 296 608 296 601 C296 592 287 582 277 582 C273 582 266 583 265 585 L182 653 L182 653 Z " />
<glyph glyph-name="Ydieresis" unicode="&#x178;" horiz-adv-x="476" d="M241 -9 C221 -9 206 6 206 26 L206 279 L24 665 C22 670 20 677 20 682 C20 700 37 716 55 716 C64 716 74 712 79 703 L79 704 L241 353 L402 704 L402 703 C407 712 417 716 427 716 C444 716 460 700 460 682 C460 677 458 669 457 665 L274 275 L274 26 C274 7 260 -9 241 -9 L241 -9 Z M366 846 C366 822 348 804 326 804 C304 804 284 823 284 846 C284 867 304 887 326 887 C348 887 366 868 366 846 L366 846 Z M193 846 C193 822 175 804 152 804 C130 804 112 823 112 846 C112 867 130 887 152 887 C175 887 193 868 193 846 L193 846 Z " />
<glyph glyph-name="Zacute" unicode="&#x179;" horiz-adv-x="484" d="M453 35 C453 15 439 1 420 1 L70 1 C49 1 34 17 34 38 C34 44 40 59 44 66 L366 640 L69 640 C50 640 36 654 36 672 C36 690 50 706 69 706 L415 706 C436 706 451 690 451 669 C451 661 445 649 442 642 L119 67 L420 67 C438 67 453 53 453 35 L453 35 Z M217 825 L304 916 C310 922 317 930 327 930 C341 930 352 916 352 903 C352 899 351 894 349 891 L267 804 C257 794 251 787 240 787 C225 787 213 800 213 815 C213 819 214 821 217 825 L217 825 Z " />
<glyph glyph-name="zacute" unicode="&#x17a;" horiz-adv-x="384" d="M367 471 C367 464 363 451 360 446 L98 59 L339 59 C356 59 369 45 369 29 C369 12 356 0 339 0 L54 0 C36 0 20 15 20 35 C20 40 22 51 26 57 L290 446 L60 446 C43 446 30 459 30 475 C30 493 43 505 60 505 L333 505 C352 505 367 493 367 471 L367 471 Z M178 625 L265 716 C271 722 278 730 288 730 C302 730 313 716 313 703 C313 699 312 694 310 691 L228 604 C218 594 212 587 201 587 C186 587 174 600 174 615 C174 619 175 621 178 625 L178 625 Z " />
<glyph glyph-name="Zdotaccent" unicode="&#x17b;" horiz-adv-x="484" d="M453 35 C453 15 439 1 420 1 L70 1 C49 1 34 17 34 38 C34 44 40 59 44 66 L366 640 L69 640 C50 640 36 654 36 672 C36 690 50 706 69 706 L415 706 C436 706 451 690 451 669 C451 661 445 649 442 642 L119 67 L420 67 C438 67 453 53 453 35 L453 35 Z M283 846 C283 822 265 804 242 804 C220 804 202 823 202 846 C202 867 220 887 242 887 C265 887 283 868 283 846 L283 846 Z " />
<glyph glyph-name="zdotaccent" unicode="&#x17c;" horiz-adv-x="384" d="M367 471 C367 464 363 451 360 446 L98 59 L339 59 C356 59 369 45 369 29 C369 12 356 0 339 0 L54 0 C36 0 20 15 20 35 C20 40 22 51 26 57 L290 446 L60 446 C43 446 30 459 30 475 C30 493 43 505 60 505 L333 505 C352 505 367 493 367 471 L367 471 Z M233 646 C233 622 215 604 192 604 C170 604 152 623 152 646 C152 667 170 687 192 687 C215 687 233 668 233 646 L233 646 Z " />
<glyph glyph-name="Zcaron" unicode="&#x17d;" horiz-adv-x="484" d="M453 35 C453 15 439 1 420 1 L70 1 C49 1 34 17 34 38 C34 44 40 59 44 66 L366 640 L69 640 C50 640 36 654 36 672 C36 690 50 706 69 706 L415 706 C436 706 451 690 451 669 C451 661 445 649 442 642 L119 67 L420 67 C438 67 453 53 453 35 L453 35 Z M244 775 C236 775 229 778 225 782 L135 857 C125 866 116 875 116 886 C116 899 130 908 140 908 C146 908 150 905 154 902 L244 829 L334 902 C338 906 343 908 348 908 C360 908 371 899 371 886 C371 874 363 866 353 857 L263 782 C259 778 252 775 244 775 L244 775 Z " />
<glyph glyph-name="zcaron" unicode="&#x17e;" horiz-adv-x="384" d="M367 471 C367 464 363 451 360 446 L98 59 L339 59 C356 59 369 45 369 29 C369 12 356 0 339 0 L54 0 C36 0 20 15 20 35 C20 40 22 51 26 57 L290 446 L60 446 C43 446 30 459 30 475 C30 493 43 505 60 505 L333 505 C352 505 367 493 367 471 L367 471 Z M195 575 C187 575 180 578 176 582 L86 657 C76 666 67 675 67 686 C67 699 81 708 91 708 C97 708 101 705 105 702 L195 629 L285 702 C289 706 294 708 299 708 C311 708 322 699 322 686 C322 674 314 666 304 657 L214 582 C210 578 203 575 195 575 L195 575 Z " />
<glyph glyph-name="florin" unicode="&#x192;" horiz-adv-x="492" d="M481 685 C481 658 460 660 447 662 C434 663 421 665 418 665 C378 665 346 637 337 592 L314 448 L408 448 C423 448 435 440 435 419 C435 400 423 393 408 393 L302 393 C279 254 249 90 225 -49 C208 -146 172 -215 83 -215 C40 -215 7 -214 7 -187 C7 -167 20 -156 40 -156 L51 -156 C57 -156 63 -157 69 -157 C127 -157 146 -125 158 -58 L237 393 L142 393 C127 393 114 401 114 420 C114 441 127 448 142 448 L247 448 L273 602 C289 671 345 722 428 722 C453 722 481 718 481 685 L481 685 Z " />
<glyph glyph-name="uni0218" unicode="&#x218;" horiz-adv-x="486" d="M372 188 C372 256 337 284 310 298 C289 309 259 320 230 330 C142 360 47 391 47 524 C47 644 124 716 247 716 C296 716 413 705 413 654 C413 638 401 623 380 623 C369 623 356 627 345 632 C322 641 294 652 253 652 C183 652 117 624 117 529 C117 458 156 433 181 420 C203 409 233 397 261 388 C346 360 443 323 443 195 C443 65 351 -9 227 -9 C164 -9 46 9 46 58 C46 75 60 91 76 91 C82 91 98 85 113 80 C139 69 176 55 228 55 C324 55 372 104 372 188 L372 188 Z M292 -113 C292 -167 247 -242 222 -242 C216 -242 210 -239 210 -233 C210 -226 219 -216 226 -205 C233 -197 244 -183 252 -163 C221 -161 198 -139 198 -113 C198 -87 219 -66 246 -66 C271 -66 292 -88 292 -113 L292 -113 Z " />
<glyph glyph-name="uni0219" unicode="&#x219;" horiz-adv-x="406" d="M59 374 C59 459 114 515 218 515 C269 515 347 503 347 465 C347 449 335 436 318 436 C312 436 308 438 303 440 C280 451 260 460 221 460 C153 460 122 432 122 379 C122 343 136 325 175 304 C254 265 362 255 362 135 C362 47 306 -7 197 -7 C146 -7 52 3 52 44 C52 59 64 74 83 74 C85 74 86 74 89 73 C119 61 152 48 197 48 C258 48 299 73 299 132 C299 174 280 193 258 205 C180 244 59 254 59 374 L59 374 Z M252 -113 C252 -167 207 -242 182 -242 C176 -242 170 -239 170 -233 C170 -226 179 -216 186 -205 C193 -197 204 -183 212 -163 C181 -161 158 -139 158 -113 C158 -87 179 -66 206 -66 C231 -66 252 -88 252 -113 L252 -113 Z " />
<glyph glyph-name="uni021A" unicode="&#x21a;" horiz-adv-x="483" d="M210 24 L210 642 L64 642 C44 642 30 656 30 673 C30 688 45 706 64 706 L423 706 C441 706 457 692 457 673 C457 656 442 642 423 642 L276 642 L276 24 C276 6 262 -9 244 -9 C225 -9 210 6 210 24 L210 24 Z M290 -113 C290 -167 245 -242 220 -242 C214 -242 208 -239 208 -233 C208 -226 217 -216 224 -205 C231 -197 242 -183 250 -163 C219 -161 196 -139 196 -113 C196 -87 217 -66 244 -66 C269 -66 290 -88 290 -113 L290 -113 Z " />
<glyph glyph-name="uni021B" unicode="&#x21b;" horiz-adv-x="321" d="M81 202 L81 633 C81 650 92 665 113 665 C134 665 145 650 145 633 L145 483 L261 483 C277 483 290 470 290 452 C290 436 277 423 261 423 L145 423 L145 209 C145 98 157 57 238 57 C245 57 251 58 258 58 C277 58 303 55 303 28 C303 0 277 -3 253 -3 C115 -3 81 65 81 202 L81 202 Z M269 -113 C269 -167 224 -242 199 -242 C193 -242 187 -239 187 -233 C187 -226 196 -216 203 -205 C210 -197 221 -183 229 -163 C198 -161 175 -139 175 -113 C175 -87 196 -66 223 -66 C248 -66 269 -88 269 -113 L269 -113 Z " />
<glyph glyph-name="dotlessj" unicode="&#x237;" horiz-adv-x="245" d="M157 479 L157 -23 C157 -124 103 -194 19 -208 C10 -209 6 -208 0 -208 C-12 -208 -24 -200 -27 -188 C-32 -165 -14 -155 -2 -153 C58 -139 92 -107 92 -27 L92 479 C92 497 106 512 125 512 C142 512 157 497 157 479 L157 479 Z " />
<glyph glyph-name="circumflex" unicode="&#x2c6;" horiz-adv-x="396" d="M199 653 L116 585 C115 583 107 582 103 582 C94 582 85 592 85 601 C85 608 93 619 101 625 L182 694 C186 697 192 701 199 701 C205 701 212 698 216 694 L297 625 C304 619 313 608 313 601 C313 592 304 582 294 582 C290 582 283 583 282 585 L199 653 L199 653 Z " />
<glyph glyph-name="caron" unicode="&#x2c7;" horiz-adv-x="391" d="M197 575 C189 575 182 578 178 582 L88 657 C78 666 69 675 69 686 C69 699 83 708 93 708 C99 708 103 705 107 702 L197 629 L287 702 C291 706 296 708 301 708 C313 708 324 699 324 686 C324 674 316 666 306 657 L216 582 C212 578 205 575 197 575 L197 575 Z " />
<glyph glyph-name="breve" unicode="&#x2d8;" horiz-adv-x="368" d="M185 632 C209 632 234 645 257 677 C264 687 273 691 282 691 C295 691 307 683 301 662 C287 612 229 585 185 585 C142 585 77 611 67 662 C63 680 77 691 88 691 C97 691 106 687 112 677 C136 645 158 632 185 632 L185 632 Z " />
<glyph glyph-name="dotaccent" unicode="&#x2d9;" horiz-adv-x="238" d="M160 646 C160 622 142 604 119 604 C97 604 79 623 79 646 C79 667 97 687 119 687 C142 687 160 668 160 646 L160 646 Z " />
<glyph glyph-name="ring" unicode="&#x2da;" horiz-adv-x="571" d="M378 651 C378 599 337 558 285 558 C232 558 190 599 190 651 C190 703 232 745 285 745 C337 745 378 703 378 651 L378 651 Z M347 651 C347 686 320 715 285 715 C250 715 222 686 222 651 C222 616 250 589 285 589 C320 589 347 616 347 651 L347 651 Z " />
<glyph glyph-name="ogonek" unicode="&#x2db;" horiz-adv-x="322" d="M244 -167 C244 -194 203 -198 174 -198 C115 -198 76 -172 76 -114 C76 -82 90 -45 111 -14 L157 -14 C144 -41 129 -72 129 -98 C129 -128 146 -151 182 -151 C198 -151 206 -149 213 -148 C218 -147 222 -146 225 -146 C236 -146 244 -156 244 -167 L244 -167 Z " />
<glyph glyph-name="tilde" unicode="&#x2dc;" horiz-adv-x="375" d="M330 656 C330 625 287 602 253 602 C231 602 211 611 194 620 C181 626 172 635 150 635 C138 635 124 632 105 617 C98 611 94 608 86 608 C74 608 63 615 63 631 C63 659 100 687 138 687 C158 687 176 679 196 668 C213 659 225 655 241 654 C268 654 279 662 289 671 C294 675 302 683 310 683 C318 683 330 673 330 656 L330 656 Z " />
<glyph glyph-name="hungarumlaut" unicode="&#x2dd;" horiz-adv-x="410" d="M217 615 L283 713 C290 724 297 737 310 737 C323 737 338 723 338 710 C338 707 338 704 336 701 L264 594 C258 585 253 580 243 580 C228 580 215 592 215 605 C215 608 215 612 217 615 L217 615 Z M79 615 L149 719 C155 729 161 737 172 737 C189 737 199 719 199 708 C199 708 199 701 198 700 C186 680 157 633 133 602 C122 588 115 580 104 580 C90 580 77 592 77 607 C77 611 78 613 79 615 L79 615 Z " />
<glyph glyph-name="uni0400" unicode="&#x400;" horiz-adv-x="474" d="M440 35 C440 15 425 1 407 1 L136 1 C106 1 79 10 79 41 L79 665 C79 686 96 706 120 706 L397 706 C415 706 429 691 429 672 C429 655 415 642 397 642 L145 642 L145 387 L377 387 C394 387 409 373 409 355 C409 337 395 323 377 323 L145 323 L145 65 L407 65 C424 65 440 51 440 35 L440 35 Z M217 917 L303 826 C306 823 307 819 307 816 C307 800 294 788 281 788 C270 788 262 794 253 804 L172 892 C169 896 168 901 168 904 C168 919 181 931 192 931 C203 931 208 925 217 917 L217 917 Z " />
<glyph glyph-name="uni0401" unicode="&#x401;" horiz-adv-x="474" d="M440 35 C440 15 425 1 407 1 L136 1 C106 1 79 10 79 41 L79 665 C79 686 96 706 120 706 L397 706 C415 706 429 691 429 672 C429 655 415 642 397 642 L145 642 L145 387 L377 387 C394 387 409 373 409 355 C409 337 395 323 377 323 L145 323 L145 65 L407 65 C424 65 440 51 440 35 L440 35 Z M396 847 C396 823 378 805 356 805 C334 805 314 824 314 847 C314 868 334 888 356 888 C378 888 396 869 396 847 L396 847 Z M223 847 C223 823 205 805 182 805 C160 805 142 824 142 847 C142 868 160 888 182 888 C205 888 223 869 223 847 L223 847 Z " />
<glyph glyph-name="uni0402" unicode="&#x402;" horiz-adv-x="644" d="M168 24 L168 643 L63 643 C44 643 29 658 29 673 C29 690 45 707 63 707 L423 707 C440 707 456 693 456 674 C456 657 441 643 423 643 L235 643 L235 409 C284 430 335 440 376 440 C507 440 582 365 582 217 C582 79 517 -9 411 -9 C355 -9 314 14 314 44 C314 60 328 73 343 73 C350 73 354 69 359 66 C369 60 379 55 403 55 C474 55 516 104 516 215 C516 333 470 376 370 376 C323 376 273 366 235 344 L235 24 C235 6 220 -9 202 -9 C184 -9 168 6 168 24 L168 24 Z " />
<glyph glyph-name="uni0403" unicode="&#x403;" horiz-adv-x="430" d="M145 641 L145 25 C145 7 131 -8 113 -8 C94 -8 79 7 79 25 L79 666 C79 686 95 705 118 705 L396 705 C413 705 427 690 427 672 C427 655 413 641 396 641 L145 641 L145 641 Z M229 826 L316 917 C322 923 329 931 339 931 C353 931 364 917 364 904 C364 900 363 895 361 892 L279 805 C269 795 263 788 252 788 C237 788 225 801 225 816 C225 820 226 822 229 826 L229 826 Z " />
<glyph glyph-name="uni0404" unicode="&#x404;" horiz-adv-x="482" d="M50 244 L50 463 C50 616 121 716 273 716 C362 716 446 679 446 636 C446 620 434 608 417 608 C408 608 403 612 395 617 C393 619 388 621 385 623 C352 645 318 657 278 657 C157 657 117 582 117 463 L117 387 L315 387 C331 387 346 373 346 355 C346 336 332 322 315 322 L117 322 L117 244 C117 126 157 51 278 51 C318 51 352 61 383 83 L394 90 C404 97 410 100 417 100 C434 100 446 87 446 72 C446 28 362 -8 273 -8 C121 -8 50 92 50 244 L50 244 Z " />
<glyph glyph-name="uni0405" unicode="&#x405;" horiz-adv-x="486" d="M372 188 C372 256 337 284 310 298 C289 309 259 320 230 330 C142 360 47 391 47 524 C47 644 124 716 247 716 C296 716 413 705 413 654 C413 638 401 623 380 623 C369 623 356 627 345 632 C322 641 294 652 253 652 C183 652 117 624 117 529 C117 458 156 433 181 420 C203 409 233 397 261 388 C346 360 443 323 443 195 C443 65 351 -9 227 -9 C164 -9 46 9 46 58 C46 75 60 91 76 91 C82 91 98 85 113 80 C139 69 176 55 228 55 C324 55 372 104 372 188 L372 188 Z " />
<glyph glyph-name="uni0406" unicode="&#x406;" horiz-adv-x="227" d="M80 24 L80 683 C80 700 96 716 114 716 C133 716 147 700 147 683 L147 24 C147 6 133 -9 114 -9 C96 -9 80 6 80 24 L80 24 Z " />
<glyph glyph-name="uni0407" unicode="&#x407;" horiz-adv-x="227" d="M80 24 L80 683 C80 700 96 716 114 716 C133 716 147 700 147 683 L147 24 C147 6 133 -9 114 -9 C96 -9 80 6 80 24 L80 24 Z M242 847 C242 823 224 805 202 805 C180 805 160 824 160 847 C160 868 180 888 202 888 C224 888 242 869 242 847 L242 847 Z M69 847 C69 823 51 805 28 805 C6 805 -12 824 -12 847 C-12 868 6 888 28 888 C51 888 69 869 69 847 L69 847 Z " />
<glyph glyph-name="uni0408" unicode="&#x408;" horiz-adv-x="385" d="M309 683 L309 223 C309 79 263 -9 111 -9 C84 -9 31 -7 31 29 C31 50 47 61 59 61 C61 61 68 60 75 59 C86 57 101 54 122 54 C222 54 242 120 242 223 L242 683 C242 701 257 716 276 716 C293 716 309 700 309 683 L309 683 Z " />
<glyph glyph-name="uni0409" unicode="&#x409;" horiz-adv-x="877" d="M447 578 L448 571 L448 643 L236 643 L204 166 C197 65 161 -7 83 -7 C47 -7 13 -6 13 26 C13 50 28 60 43 60 C56 60 55 57 72 57 C113 57 132 90 137 158 L174 673 C177 698 194 707 206 707 L482 707 C499 707 514 692 514 674 L514 441 L619 441 C753 441 840 364 840 223 C840 107 782 1 619 1 L489 1 C466 1 447 19 447 42 L447 578 L447 578 Z M514 377 L514 65 L619 65 C745 65 774 145 774 222 C774 327 721 377 619 377 L514 377 L514 377 Z " />
<glyph glyph-name="uni040A" unicode="&#x40a;" horiz-adv-x="848" d="M143 322 L143 25 C143 6 129 -9 111 -9 C92 -9 77 6 77 25 L77 683 C77 700 92 716 111 716 C129 716 143 700 143 683 L143 386 L417 386 L417 680 C417 700 433 716 451 716 C469 716 484 699 484 680 L484 441 L589 441 C724 441 811 364 811 223 C811 107 752 1 589 1 L459 1 C437 1 417 19 417 42 L417 322 L143 322 L143 322 Z M484 377 L484 65 L589 65 C715 65 744 145 744 222 C744 327 691 377 589 377 L484 377 L484 377 Z " />
<glyph glyph-name="uni040B" unicode="&#x40b;" horiz-adv-x="644" d="M456 674 C456 657 441 643 423 643 L235 643 L235 409 C284 430 335 440 376 440 C507 440 582 363 582 222 L582 26 C582 7 568 -9 549 -9 C532 -9 516 6 516 26 L516 221 C516 333 468 376 369 376 C323 376 273 366 235 344 L235 24 C235 6 220 -9 202 -9 C184 -9 168 6 168 24 L168 643 L63 643 C44 643 29 657 29 674 C29 689 45 707 63 707 L423 707 C440 707 456 693 456 674 L456 674 Z " />
<glyph glyph-name="uni040C" unicode="&#x40c;" horiz-adv-x="516" d="M145 683 L145 386 L217 386 C286 488 363 598 432 700 C440 710 451 716 460 716 C479 716 490 695 490 679 C490 674 489 669 487 664 L270 353 L486 42 C489 37 490 32 490 27 C490 11 479 -9 460 -9 C449 -9 439 -4 432 6 L215 322 L145 322 L145 25 C145 6 131 -9 112 -9 C94 -9 79 6 79 25 L79 683 C79 700 94 716 112 716 C131 716 145 700 145 683 L145 683 Z M247 826 L334 917 C340 923 347 931 357 931 C371 931 382 917 382 904 C382 900 381 895 379 892 L297 805 C287 795 281 788 270 788 C255 788 243 801 243 816 C243 820 244 822 247 826 L247 826 Z " />
<glyph glyph-name="uni040D" unicode="&#x40d;" horiz-adv-x="589" d="M116 -9 C94 -9 78 7 78 28 L78 682 C78 700 93 716 111 716 C130 716 145 700 145 682 L145 131 L444 695 C451 708 466 716 480 716 C500 716 516 700 516 678 L516 25 C516 6 501 -9 484 -9 C466 -9 449 6 449 25 L449 575 L151 10 C144 -2 130 -9 116 -9 L116 -9 Z M226 917 L312 826 C315 823 316 819 316 816 C316 800 303 788 290 788 C279 788 271 794 262 804 L181 892 C178 896 177 901 177 904 C177 919 190 931 201 931 C212 931 217 925 226 917 L226 917 Z " />
<glyph glyph-name="uni040E" unicode="&#x40e;" horiz-adv-x="503" d="M476 674 L311 228 C260 91 225 -5 97 -7 C78 -7 64 6 64 24 C64 39 75 53 94 54 C163 57 193 85 226 163 L32 674 C30 677 30 684 30 687 C30 704 44 716 63 716 C75 716 86 708 91 694 L257 247 C306 386 367 555 416 695 C422 706 435 716 446 716 C462 716 477 703 477 684 C477 679 476 675 476 674 L476 674 Z M253 833 C277 833 302 846 325 878 C332 888 341 892 350 892 C363 892 375 884 369 863 C355 813 297 786 253 786 C210 786 145 812 135 863 C131 881 145 892 156 892 C165 892 174 888 180 878 C204 846 226 833 253 833 L253 833 Z " />
<glyph glyph-name="uni040F" unicode="&#x40f;" horiz-adv-x="579" d="M258 -130 L258 1 L112 1 C94 1 79 16 79 34 L79 683 C79 701 94 717 112 717 C131 717 145 701 145 683 L145 65 L439 65 L439 683 C439 701 456 717 473 717 C491 717 506 701 506 683 L506 34 C506 16 490 1 473 1 L325 1 L325 -130 C325 -147 310 -162 292 -162 C274 -162 258 -147 258 -130 L258 -130 Z " />
<glyph glyph-name="uni0410" unicode="&#x410;" horiz-adv-x="549" d="M142 163 L97 15 C91 3 76 -9 65 -9 C46 -9 30 4 30 24 C30 27 31 34 32 37 L231 667 C239 695 251 716 277 716 C302 716 315 694 324 667 L523 37 C523 35 524 28 524 24 C524 4 509 -9 489 -9 C477 -9 461 1 457 15 L411 163 L142 163 L142 163 Z M277 607 L161 228 L392 228 L277 607 L277 607 Z " />
<glyph glyph-name="uni0411" unicode="&#x411;" horiz-adv-x="531" d="M416 641 L145 641 L145 421 L271 421 C406 421 492 346 492 213 C492 102 434 1 271 1 L121 1 C98 1 79 19 79 42 L79 666 C79 686 95 705 117 705 L416 705 C433 705 447 690 447 672 C447 655 433 641 416 641 L416 641 Z M145 65 L271 65 C397 65 426 140 426 212 C426 310 373 357 271 357 L145 357 L145 65 L145 65 Z " />
<glyph glyph-name="uni0412" unicode="&#x412;" horiz-adv-x="542" d="M145 400 L271 400 C340 400 418 440 418 528 C418 586 385 642 288 642 L145 642 L145 400 L145 400 Z M274 335 L145 335 L145 65 L278 65 C385 65 437 119 437 196 C437 286 368 335 274 335 L274 335 Z M289 1 L120 1 C97 1 79 19 79 42 L79 664 C79 688 98 706 120 706 L293 706 C421 706 484 618 484 527 C484 443 430 397 358 363 C424 339 504 306 504 197 C504 87 422 1 289 1 L289 1 Z " />
<glyph glyph-name="uni0413" unicode="&#x413;" horiz-adv-x="430" d="M145 641 L145 25 C145 7 131 -8 113 -8 C94 -8 79 7 79 25 L79 666 C79 686 95 705 118 705 L396 705 C413 705 427 690 427 672 C427 655 413 641 396 641 L145 641 L145 641 Z " />
<glyph glyph-name="uni0414" unicode="&#x414;" horiz-adv-x="628" d="M502 705 C521 705 535 690 535 672 L535 65 L569 65 C588 65 602 46 602 20 L602 -110 C602 -128 588 -142 569 -142 C550 -142 536 -128 536 -110 L536 1 L96 1 L96 -110 C96 -128 81 -142 64 -142 C46 -142 31 -128 31 -110 L31 20 C31 46 46 65 64 65 L98 65 C133 114 153 213 159 343 L174 672 C175 697 194 705 206 705 L502 705 L502 705 Z M226 343 C221 229 200 133 161 65 L469 65 L469 641 L237 641 L226 343 L226 343 Z " />
<glyph glyph-name="uni0415" unicode="&#x415;" horiz-adv-x="474" d="M440 35 C440 15 425 1 407 1 L136 1 C106 1 79 10 79 41 L79 665 C79 686 96 706 120 706 L397 706 C415 706 429 691 429 672 C429 655 415 642 397 642 L145 642 L145 387 L377 387 C394 387 409 373 409 355 C409 337 395 323 377 323 L145 323 L145 65 L407 65 C424 65 440 51 440 35 L440 35 Z " />
<glyph glyph-name="uni0416" unicode="&#x416;" horiz-adv-x="746" d="M410 683 L410 386 L469 386 L666 700 C673 711 685 716 694 716 C723 716 732 683 721 664 L530 353 L720 42 C723 37 724 32 724 27 C724 11 713 -9 694 -9 C683 -9 673 -3 666 6 L469 322 L410 322 L410 25 C410 6 395 -9 377 -9 C359 -9 343 6 343 25 L343 322 L285 322 L88 6 C81 -3 72 -9 60 -9 C40 -9 29 11 29 27 C29 31 30 35 34 42 L223 353 L33 664 C19 688 41 716 63 716 C72 716 81 711 88 700 L284 386 L343 386 L343 683 C343 700 359 716 377 716 C395 716 410 700 410 683 L410 683 Z " />
<glyph glyph-name="uni0417" unicode="&#x417;" horiz-adv-x="485" d="M443 191 C443 84 361 -9 229 -9 C158 -9 35 16 35 68 C35 85 48 98 64 98 C67 98 71 97 80 92 C122 71 162 49 228 49 C328 49 377 111 377 190 C377 289 295 323 194 328 C174 329 151 331 151 360 C151 387 170 390 185 390 C268 390 362 433 362 530 C362 593 327 658 228 658 C195 658 157 654 131 637 L109 623 C96 615 85 610 74 609 C60 609 46 620 46 636 C46 684 157 716 233 716 C361 716 424 621 424 529 C424 453 371 398 290 363 C380 332 443 279 443 191 L443 191 Z " />
<glyph glyph-name="uni0418" unicode="&#x418;" horiz-adv-x="589" d="M116 -9 C94 -9 78 7 78 28 L78 682 C78 700 93 716 111 716 C130 716 145 700 145 682 L145 131 L444 695 C451 708 466 716 480 716 C500 716 516 700 516 678 L516 25 C516 6 501 -9 484 -9 C466 -9 449 6 449 25 L449 575 L151 10 C144 -2 130 -9 116 -9 L116 -9 Z " />
<glyph glyph-name="uni0419" unicode="&#x419;" horiz-adv-x="589" d="M116 -9 C94 -9 78 7 78 28 L78 682 C78 700 93 716 111 716 C130 716 145 700 145 682 L145 131 L444 695 C451 708 466 716 480 716 C500 716 516 700 516 678 L516 25 C516 6 501 -9 484 -9 C466 -9 449 6 449 25 L449 575 L151 10 C144 -2 130 -9 116 -9 L116 -9 Z M296 833 C320 833 345 846 368 878 C375 888 384 892 393 892 C406 892 418 884 412 863 C398 813 340 786 296 786 C253 786 188 812 178 863 C174 881 188 892 199 892 C208 892 217 888 223 878 C247 846 269 833 296 833 L296 833 Z " />
<glyph glyph-name="uni041A" unicode="&#x41a;" horiz-adv-x="516" d="M145 683 L145 386 L217 386 C286 488 363 598 432 700 C440 710 451 716 460 716 C479 716 490 695 490 679 C490 674 489 669 487 664 L270 353 L486 42 C489 37 490 32 490 27 C490 11 479 -9 460 -9 C449 -9 439 -4 432 6 L215 322 L145 322 L145 25 C145 6 131 -9 112 -9 C94 -9 79 6 79 25 L79 683 C79 700 94 716 112 716 C131 716 145 700 145 683 L145 683 Z " />
<glyph glyph-name="uni041B" unicode="&#x41b;" horiz-adv-x="610" d="M536 25 L537 25 C536 7 522 -7 504 -7 C484 -7 470 7 470 25 L470 641 L238 641 L205 166 C198 65 162 -7 85 -7 C49 -7 14 -6 14 26 C14 50 30 60 45 60 C58 60 56 57 74 57 C114 57 134 90 139 158 L176 671 C178 696 195 705 207 705 L504 705 C522 705 536 690 536 672 L536 25 L536 25 Z " />
<glyph glyph-name="uni041C" unicode="&#x41c;" horiz-adv-x="690" d="M626 680 L626 22 C626 5 611 -9 594 -9 C576 -9 559 5 559 22 L559 552 C506 437 434 287 380 172 C373 159 361 152 348 152 C334 152 322 160 316 172 L136 552 L136 22 C136 5 121 -9 101 -9 C84 -9 70 5 70 22 L70 680 C70 701 85 716 106 716 C123 716 134 708 142 693 L142 694 L349 251 L555 695 L555 694 C564 710 577 716 591 716 C610 716 626 700 626 680 L626 680 Z " />
<glyph glyph-name="uni041D" unicode="&#x41d;" horiz-adv-x="580" d="M506 25 C506 6 491 -9 473 -9 C456 -9 439 6 439 25 L439 322 L145 322 L145 25 C145 6 131 -9 112 -9 C94 -9 79 6 79 25 L79 683 C79 700 94 716 112 716 C131 716 145 700 145 683 L145 386 L439 386 L439 683 C439 700 456 716 473 716 C490 716 506 700 506 683 L506 25 L506 25 Z " />
<glyph glyph-name="uni041E" unicode="&#x41e;" horiz-adv-x="551" d="M278 -9 C127 -9 50 103 50 244 L50 463 C50 601 114 716 278 716 C440 716 505 601 505 463 L505 244 C505 103 429 -9 278 -9 L278 -9 Z M278 652 C159 652 117 576 117 463 L117 244 C117 133 168 55 278 55 C388 55 438 133 438 244 L438 463 C438 576 395 652 278 652 L278 652 Z " />
<glyph glyph-name="uni041F" unicode="&#x41f;" horiz-adv-x="579" d="M506 25 C506 6 491 -9 473 -9 C456 -9 439 6 439 25 L439 641 L145 641 L145 25 C145 6 131 -9 112 -9 C94 -9 79 6 79 25 L79 671 C79 689 94 705 112 705 L473 705 C490 705 506 689 506 671 L506 25 L506 25 Z " />
<glyph glyph-name="uni0420" unicode="&#x420;" horiz-adv-x="530" d="M271 267 L145 267 L145 26 C145 7 131 -9 112 -9 C95 -9 79 6 79 26 L79 664 C79 687 98 706 121 706 L271 706 C434 706 492 600 492 484 C492 344 406 267 271 267 L271 267 Z M145 642 L145 331 L271 331 C373 331 426 380 426 485 C426 563 397 642 271 642 L145 642 L145 642 Z " />
<glyph glyph-name="uni0421" unicode="&#x421;" horiz-adv-x="481" d="M50 244 L50 463 C50 616 121 716 273 716 C362 716 446 679 446 636 C446 620 434 608 417 608 C408 608 403 612 395 617 C393 619 388 621 385 623 C352 645 318 657 278 657 C157 657 117 582 117 463 L117 244 C117 126 157 51 278 51 C318 51 352 61 383 83 L394 90 C404 97 410 100 417 100 C434 100 446 87 446 72 C446 28 362 -8 273 -8 C121 -8 50 92 50 244 L50 244 Z " />
<glyph glyph-name="uni0422" unicode="&#x422;" horiz-adv-x="483" d="M210 24 L210 642 L64 642 C44 642 30 656 30 673 C30 688 45 706 64 706 L423 706 C441 706 457 692 457 673 C457 656 442 642 423 642 L276 642 L276 24 C276 6 262 -9 244 -9 C225 -9 210 6 210 24 L210 24 Z " />
<glyph glyph-name="uni0423" unicode="&#x423;" horiz-adv-x="503" d="M476 674 L311 228 C260 91 225 -5 97 -7 C78 -7 64 6 64 24 C64 39 75 53 94 54 C163 57 193 85 226 163 L32 674 C30 677 30 684 30 687 C30 704 44 716 63 716 C75 716 86 708 91 694 L257 247 C306 386 367 555 416 695 C422 706 435 716 446 716 C462 716 477 703 477 684 C477 679 476 675 476 674 L476 674 Z " />
<glyph glyph-name="uni0424" unicode="&#x424;" horiz-adv-x="750" d="M345 24 L345 165 L272 165 C136 165 49 242 49 382 C49 498 107 605 272 605 L345 605 L345 683 C345 700 362 716 379 716 C398 716 412 700 412 683 L412 605 L486 605 C650 605 708 498 708 382 C708 242 621 165 486 165 L412 165 L412 24 C412 6 397 -9 379 -9 C361 -9 345 6 345 24 L345 24 Z M486 540 L412 540 L412 229 L486 229 C588 229 642 278 642 383 C642 461 613 540 486 540 L486 540 Z M272 229 L345 229 L345 540 L272 540 C144 540 115 461 115 383 C115 278 170 229 272 229 L272 229 Z " />
<glyph glyph-name="uni0425" unicode="&#x425;" horiz-adv-x="483" d="M244 319 L74 16 C68 5 59 -9 42 -9 C26 -9 11 7 11 25 C11 32 13 39 16 43 L204 368 L31 665 L32 664 C29 670 27 678 27 684 C27 700 41 716 58 716 C71 716 85 701 94 684 L244 416 L393 684 L392 684 C400 698 413 716 431 716 C446 716 459 701 459 683 C459 676 457 669 455 664 L456 665 L284 368 L472 43 C474 39 476 32 476 25 C476 7 461 -9 446 -9 C431 -9 420 5 413 16 L244 319 L244 319 Z " />
<glyph glyph-name="uni0426" unicode="&#x426;" horiz-adv-x="604" d="M112 1 C93 1 78 16 78 34 L78 682 C78 700 93 716 112 716 C130 716 145 700 145 682 L145 65 L439 65 L439 682 C439 700 455 716 473 716 C491 716 505 700 505 682 L505 65 L554 65 C572 65 587 49 587 32 L587 -129 C587 -147 572 -162 554 -162 C537 -162 521 -147 521 -129 L521 1 L112 1 L112 1 Z " />
<glyph glyph-name="uni0427" unicode="&#x427;" horiz-adv-x="547" d="M406 361 L406 680 C406 699 421 716 440 716 C457 716 472 700 472 680 L472 26 C472 6 457 -9 440 -9 C421 -9 406 7 406 26 L406 296 C359 276 308 267 266 267 C134 267 58 344 58 484 L58 680 C58 699 74 716 92 716 C109 716 125 700 125 680 L125 485 C125 374 174 331 273 331 C318 331 368 341 406 361 L406 361 Z " />
<glyph glyph-name="uni0428" unicode="&#x428;" horiz-adv-x="760" d="M689 682 L689 34 C689 16 673 1 656 1 L111 1 C93 1 78 16 78 34 L78 682 C78 700 93 716 111 716 C130 716 144 700 144 682 L144 65 L349 65 L349 683 C349 700 365 716 383 716 C401 716 416 700 416 683 L416 65 L622 65 L622 682 C622 700 638 716 656 716 C674 716 689 700 689 682 L689 682 Z " />
<glyph glyph-name="uni0429" unicode="&#x429;" horiz-adv-x="784" d="M688 682 L688 65 L737 65 C755 65 770 49 770 32 L770 -129 C770 -147 756 -162 737 -162 C720 -162 703 -147 703 -129 L703 1 L111 1 C92 1 77 16 77 34 L77 682 C77 700 92 716 111 716 C129 716 144 700 144 682 L144 65 L349 65 L349 683 C349 700 364 716 383 716 C401 716 415 700 415 683 L415 65 L622 65 L622 682 C622 700 638 716 655 716 C674 716 688 700 688 682 L688 682 Z " />
<glyph glyph-name="uni042A" unicode="&#x42a;" horiz-adv-x="654" d="M200 42 L200 643 L53 643 C34 643 20 657 20 674 C20 692 34 707 53 707 L228 707 C250 707 266 688 266 668 L266 441 L392 441 C527 441 614 364 614 223 C614 107 555 1 392 1 L242 1 C219 1 200 19 200 42 L200 42 Z M266 65 L392 65 C519 65 547 145 547 222 C547 327 494 377 392 377 L266 377 L266 65 L266 65 Z " />
<glyph glyph-name="uni042B" unicode="&#x42b;" horiz-adv-x="725" d="M144 441 L270 441 C405 441 492 364 492 223 C492 107 433 1 270 1 L120 1 C97 1 78 19 78 42 L78 680 C78 700 94 716 111 716 C130 716 144 699 144 680 L144 441 L144 441 Z M144 377 L144 65 L270 65 C397 65 425 145 425 222 C425 327 372 377 270 377 L144 377 L144 377 Z M587 24 L587 683 C587 700 602 716 620 716 C639 716 653 700 653 683 L653 24 C653 6 639 -9 620 -9 C602 -9 587 6 587 24 L587 24 Z " />
<glyph glyph-name="uni042C" unicode="&#x42c;" horiz-adv-x="535" d="M145 441 L271 441 C406 441 492 364 492 223 C492 107 434 1 271 1 L121 1 C98 1 79 19 79 42 L79 680 C79 700 95 716 112 716 C131 716 145 699 145 680 L145 441 L145 441 Z M145 377 L145 65 L271 65 C397 65 426 145 426 222 C426 327 373 377 271 377 L145 377 L145 377 Z " />
<glyph glyph-name="uni042D" unicode="&#x42d;" horiz-adv-x="498" d="M451 463 L451 244 C451 92 381 -8 229 -8 C140 -8 55 28 55 72 C55 87 68 100 85 100 C93 100 98 96 109 90 C113 88 116 85 119 83 C150 61 183 51 224 51 C345 51 384 126 384 244 L384 322 L187 322 C169 322 156 336 156 355 C156 373 171 387 187 387 L384 387 L384 463 C384 582 345 657 224 657 C183 657 150 645 118 623 L108 617 C100 612 95 608 85 608 C68 608 55 620 55 636 C55 679 140 716 229 716 C381 716 451 616 451 463 L451 463 Z " />
<glyph glyph-name="uni042E" unicode="&#x42e;" horiz-adv-x="758" d="M499 -9 C355 -9 282 99 282 234 L282 323 L144 323 L144 25 C144 6 130 -9 111 -9 C93 -9 77 6 77 25 L77 683 C77 700 93 716 111 716 C130 716 144 700 144 683 L144 386 L282 386 L282 473 C282 606 343 716 499 716 C655 716 716 606 716 473 L716 234 C716 99 643 -9 499 -9 L499 -9 Z M499 652 C388 652 348 580 348 473 L348 234 C348 129 396 55 499 55 C603 55 650 129 650 234 L650 473 C650 580 610 652 499 652 L499 652 Z " />
<glyph glyph-name="uni042F" unicode="&#x42f;" horiz-adv-x="561" d="M76 509 C76 606 128 705 291 705 L449 705 C470 705 487 686 487 663 L487 26 C487 6 473 -9 456 -9 C437 -9 421 7 421 26 L421 318 L312 318 L130 7 C124 -2 113 -8 102 -8 C89 -8 65 5 65 22 C65 29 67 37 70 42 L238 320 C138 339 76 404 76 509 L76 509 Z M142 509 C142 425 194 381 289 381 L421 381 L421 641 L295 641 C170 641 142 572 142 509 L142 509 Z " />
<glyph glyph-name="uni0430" unicode="&#x430;" horiz-adv-x="482" d="M335 272 L335 341 C335 422 297 460 218 460 C181 460 160 452 137 438 C131 434 123 430 113 430 C98 430 92 444 91 456 C87 498 161 515 228 515 C351 515 400 445 400 314 L400 88 C400 62 409 49 427 49 C431 49 433 50 435 50 C450 50 457 36 457 23 C457 3 437 -4 419 -4 C388 -4 361 18 343 53 C301 13 254 -7 200 -7 C99 -7 50 53 50 140 L50 144 C50 240 107 290 224 290 C258 290 296 283 335 272 L335 272 Z M223 237 C131 237 114 194 114 143 L114 139 C114 87 137 49 213 49 C259 49 296 65 335 98 L335 218 C295 231 253 237 223 237 L223 237 Z " />
<glyph glyph-name="uni0431" unicode="&#x431;" horiz-adv-x="465" d="M50 484 C50 611 109 686 248 700 C255 701 262 702 266 702 C289 703 302 703 357 729 C359 730 364 732 368 732 C384 732 396 718 396 702 C396 655 297 647 247 643 C200 639 115 629 115 490 L115 413 C151 459 196 486 251 486 C357 486 420 409 420 310 L420 168 C420 69 356 -7 235 -7 C115 -7 50 69 50 168 L50 484 L50 484 Z M235 52 C315 52 355 96 355 168 L355 311 C355 383 320 428 241 428 C163 428 117 385 115 316 L115 168 C115 96 156 52 235 52 L235 52 Z " />
<glyph glyph-name="uni0432" unicode="&#x432;" horiz-adv-x="468" d="M413 368 C413 319 387 282 326 259 C394 234 423 194 423 139 C423 58 369 1 260 1 L112 1 C93 1 79 15 79 33 L79 473 C79 491 93 506 112 506 L250 506 C360 506 413 448 413 368 L413 368 Z M359 142 C359 186 341 231 247 231 L144 231 L144 55 L258 55 C325 55 359 81 359 142 L359 142 Z M144 452 L144 283 L250 283 C333 283 349 325 349 364 C349 426 314 452 248 452 L144 452 L144 452 Z " />
<glyph glyph-name="uni0433" unicode="&#x433;" horiz-adv-x="372" d="M144 449 L144 25 C144 7 129 -7 112 -7 C93 -7 79 7 79 25 L79 477 C79 494 92 506 109 506 L341 506 C356 506 370 494 370 477 C370 462 357 449 341 449 L144 449 L144 449 Z " />
<glyph glyph-name="uni0434" unicode="&#x434;" horiz-adv-x="538" d="M418 506 C436 506 450 491 450 473 L450 54 L486 54 C504 54 518 39 518 21 L518 -111 C518 -129 504 -143 486 -143 C468 -143 453 -129 453 -111 L453 1 L92 1 L92 -111 C92 -129 77 -143 60 -143 C41 -143 27 -129 27 -111 L27 21 C27 39 41 54 60 54 L82 54 C117 89 135 163 140 264 L149 473 C152 498 169 506 181 506 L418 506 L418 506 Z M201 264 C198 180 181 108 148 54 L385 54 L385 453 L208 453 L201 264 L201 264 Z " />
<glyph glyph-name="uni0435" unicode="&#x435;" horiz-adv-x="433" d="M236 48 C282 48 310 61 346 77 C348 78 353 80 357 80 C373 80 385 66 385 52 C385 7 279 -7 226 -7 C114 -7 50 64 50 156 L50 348 C50 443 114 515 232 515 C341 515 394 452 394 355 C394 265 345 210 228 210 C195 210 154 213 115 221 L115 150 C115 89 156 48 236 48 L236 48 Z M330 355 C330 428 293 458 229 458 C157 458 115 418 115 356 L115 271 C158 265 211 263 232 263 C316 263 330 308 330 355 L330 355 Z " />
<glyph glyph-name="uni0436" unicode="&#x436;" horiz-adv-x="608" d="M341 25 C341 7 326 -7 309 -7 C290 -7 276 7 276 25 L276 236 L226 236 L86 8 C79 -1 69 -7 59 -7 C42 -7 29 3 28 19 C28 24 30 33 33 38 L164 251 L31 469 C28 472 28 479 28 484 C29 501 42 511 59 511 C69 511 79 506 86 495 L213 289 L276 289 L276 479 C276 497 290 512 309 512 C326 512 341 497 341 479 L341 289 L403 289 L531 495 C537 506 548 511 558 511 C576 511 588 501 589 484 L588 484 C588 477 587 469 584 465 L453 251 L584 38 C587 34 588 25 588 19 L589 19 C588 3 576 -7 558 -7 C547 -7 537 -1 531 8 L391 236 L341 236 L341 25 L341 25 Z " />
<glyph glyph-name="uni0437" unicode="&#x437;" horiz-adv-x="408" d="M353 375 C353 314 327 271 260 259 L260 258 C333 245 364 200 364 133 C364 48 309 -7 196 -7 C144 -7 44 3 44 45 C44 58 53 74 78 74 C80 74 81 74 82 73 C109 62 149 48 199 48 C264 48 301 73 301 138 C301 169 293 222 173 229 C153 230 130 232 130 257 C130 280 151 281 171 283 C278 293 291 348 291 380 C291 432 260 460 189 460 C138 460 110 436 84 436 C67 436 55 449 55 464 C55 503 139 515 192 515 C300 515 353 458 353 375 L353 375 Z " />
<glyph glyph-name="uni0438" unicode="&#x438;" horiz-adv-x="530" d="M116 -9 C94 -9 78 7 78 28 L78 478 C78 497 92 513 110 513 C129 513 143 497 143 478 L143 104 L386 492 C394 505 407 513 423 513 C443 513 458 497 458 475 L458 25 C458 6 443 -9 426 -9 C407 -9 393 6 393 25 L393 398 L152 10 C144 -1 131 -9 116 -9 L116 -9 Z " />
<glyph glyph-name="uni0439" unicode="&#x439;" horiz-adv-x="530" d="M116 -9 C94 -9 78 7 78 28 L78 478 C78 497 92 513 110 513 C129 513 143 497 143 478 L143 104 L386 492 C394 505 407 513 423 513 C443 513 458 497 458 475 L458 25 C458 6 443 -9 426 -9 C407 -9 393 6 393 25 L393 398 L152 10 C144 -1 131 -9 116 -9 L116 -9 Z M267 632 C291 632 316 645 339 677 C346 687 355 691 364 691 C377 691 389 683 383 662 C369 612 311 585 267 585 C224 585 159 611 149 662 C145 680 159 691 170 691 C179 691 188 687 194 677 C218 645 240 632 267 632 L267 632 Z " />
<glyph glyph-name="uni043A" unicode="&#x43a;" horiz-adv-x="436" d="M144 25 C144 7 129 -7 112 -7 C93 -7 79 7 79 25 L79 479 C79 497 93 512 112 512 C129 512 144 497 144 479 L144 289 L219 289 L355 495 C362 506 371 511 382 511 C399 511 412 501 412 484 C412 477 410 470 407 465 L263 251 L407 38 C410 34 413 24 413 19 C414 3 399 -7 382 -7 C370 -7 361 -2 355 8 L204 236 L144 236 L144 25 L144 25 Z " />
<glyph glyph-name="uni043B" unicode="&#x43b;" horiz-adv-x="524" d="M453 25 C453 7 439 -7 421 -7 C402 -7 388 7 388 25 L388 453 L211 453 L187 162 C179 62 147 -4 71 -4 C43 -4 15 -3 15 24 C15 46 30 56 46 56 L52 56 C54 56 55 55 59 55 C100 55 120 87 125 154 L152 472 C155 497 172 506 184 506 L421 506 C439 506 453 491 453 473 L453 25 L453 25 Z " />
<glyph glyph-name="uni043C" unicode="&#x43c;" horiz-adv-x="640" d="M325 87 L323 87 C309 87 298 95 291 107 L141 375 L141 25 C141 7 127 -7 109 -7 C92 -7 78 7 78 25 L78 476 C78 497 93 512 114 512 C129 512 139 502 148 489 L324 167 L500 489 C508 502 519 512 534 512 C554 512 569 497 569 476 L569 25 C569 7 555 -7 538 -7 C520 -7 505 7 505 25 L505 375 L357 107 C350 95 338 87 325 87 L325 87 Z " />
<glyph glyph-name="uni043D" unicode="&#x43d;" horiz-adv-x="514" d="M143 25 C143 7 129 -7 111 -7 C93 -7 78 7 78 25 L78 479 C78 497 93 512 111 512 C129 512 143 497 143 479 L143 289 L377 289 L377 479 C377 497 392 512 410 512 C428 512 442 497 442 479 L442 25 C442 7 428 -7 410 -7 C392 -7 377 7 377 25 L377 236 L143 236 L143 25 L143 25 Z " />
<glyph glyph-name="uni043E" unicode="&#x43e;" horiz-adv-x="465" d="M235 -7 C115 -7 50 69 50 168 L50 340 C50 439 115 516 235 516 C356 516 420 439 420 340 L420 168 C420 69 356 -7 235 -7 L235 -7 Z M235 52 C315 52 355 96 355 168 L355 341 C355 413 315 458 235 458 C156 458 115 413 115 341 L115 168 C115 96 156 52 235 52 L235 52 Z " />
<glyph glyph-name="uni043F" unicode="&#x43f;" horiz-adv-x="504" d="M143 25 C143 7 129 -7 112 -7 C93 -7 79 7 79 25 L79 473 C79 491 93 506 112 506 L400 506 C418 506 432 491 432 473 L432 25 C432 7 418 -7 400 -7 C382 -7 367 7 367 25 L367 453 L143 453 L143 25 L143 25 Z " />
<glyph glyph-name="uni0440" unicode="&#x440;" horiz-adv-x="478" d="M270 -6 C234 -6 189 2 148 15 L148 -184 C148 -201 136 -215 116 -215 C94 -215 83 -201 83 -184 L83 373 C83 408 79 429 65 449 C61 454 59 460 59 466 C59 483 73 495 88 495 C101 495 115 483 126 467 C176 494 228 515 279 515 C382 515 434 439 434 328 L434 194 C434 76 395 -6 270 -6 L270 -6 Z M148 373 L148 72 C184 56 232 48 260 48 C340 48 369 93 369 194 L369 328 C369 413 335 459 262 459 C226 459 182 443 143 419 C146 404 148 389 148 373 L148 373 Z " />
<glyph glyph-name="uni0441" unicode="&#x441;" horiz-adv-x="390" d="M50 174 L50 330 C50 432 104 512 228 512 C273 512 363 500 363 457 C363 442 351 430 336 430 C330 430 326 431 321 432 L322 432 C297 445 273 457 236 457 C149 457 115 410 115 330 L115 174 C115 95 149 48 236 48 C275 48 298 60 322 72 L321 72 C328 74 332 75 336 75 C351 75 363 62 363 47 C363 5 273 -7 228 -7 C104 -7 50 72 50 174 L50 174 Z " />
<glyph glyph-name="uni0442" unicode="&#x442;" horiz-adv-x="408" d="M239 445 L239 25 C239 7 225 -7 207 -7 C189 -7 174 7 174 25 L174 445 L60 445 C43 445 30 459 30 475 C30 493 43 506 60 506 L354 506 C371 506 383 493 383 475 C383 459 371 445 354 445 L239 445 L239 445 Z " />
<glyph glyph-name="uni0443" unicode="&#x443;" horiz-adv-x="412" d="M399 469 L273 60 C227 -86 181 -202 58 -202 C38 -202 24 -189 24 -171 C24 -156 35 -141 54 -140 C125 -137 154 -103 187 -5 L23 471 C20 474 20 479 20 482 C20 500 35 512 53 512 C65 512 77 503 82 491 L218 76 C254 203 302 363 338 491 C344 502 356 512 368 512 C384 512 400 499 400 479 C400 474 399 471 399 469 L399 469 Z " />
<glyph glyph-name="uni0444" unicode="&#x444;" horiz-adv-x="585" d="M262 -189 L262 -7 C122 -7 49 91 49 220 L49 298 C49 422 122 515 262 515 L262 700 C262 717 277 733 295 733 C313 733 327 718 327 700 L327 515 C470 515 543 422 543 298 L543 220 C543 91 470 -7 329 -7 L327 -189 C327 -206 313 -221 295 -221 C277 -221 262 -206 262 -189 L262 -189 Z M338 457 L327 457 L327 52 C428 52 478 116 478 220 L478 299 C478 396 431 457 338 457 L338 457 Z M262 52 L262 457 C163 457 114 396 114 299 L114 220 C114 116 163 52 262 52 L262 52 Z " />
<glyph glyph-name="uni0445" unicode="&#x445;" horiz-adv-x="431" d="M184 259 L46 466 C43 470 42 475 42 481 C42 499 59 512 73 512 C89 512 96 503 105 489 L220 311 L335 489 C344 503 351 512 367 512 C381 512 398 499 398 481 C398 475 397 470 394 466 L256 259 L404 40 C406 37 407 31 407 27 C407 8 393 -7 374 -7 C358 -7 352 0 341 16 L218 205 L90 9 C83 -2 75 -7 64 -7 C45 -7 30 6 30 25 C30 30 31 33 34 38 L184 259 L184 259 Z " />
<glyph glyph-name="uni0446" unicode="&#x446;" horiz-adv-x="529" d="M442 479 L442 54 L478 54 C495 54 510 39 510 21 L510 -111 C510 -129 495 -143 478 -143 C459 -143 445 -129 445 -111 L445 1 L111 1 C92 1 78 15 78 33 L78 479 C78 498 92 512 111 512 C128 512 143 498 143 479 L143 54 L377 54 L377 479 C377 498 391 512 410 512 C427 512 442 498 442 479 L442 479 Z " />
<glyph glyph-name="uni0447" unicode="&#x447;" horiz-adv-x="468" d="M115 479 L115 334 C115 288 128 242 214 242 C236 242 286 248 329 258 L329 479 C329 497 344 512 362 512 C380 512 394 497 394 479 L394 25 C394 7 380 -7 362 -7 C344 -7 329 7 329 25 L329 205 C289 195 249 190 217 190 C100 190 50 244 50 334 L50 479 C50 497 65 512 83 512 C101 512 115 497 115 479 L115 479 Z " />
<glyph glyph-name="uni0448" unicode="&#x448;" horiz-adv-x="705" d="M637 479 L637 33 C637 15 622 1 605 1 L110 1 C91 1 77 15 77 33 L77 479 C77 498 91 512 110 512 C127 512 142 498 142 479 L142 54 L324 54 L324 479 C324 497 339 512 357 512 C375 512 389 497 389 479 L389 54 L572 54 L572 479 C572 498 586 512 605 512 C622 512 637 498 637 479 L637 479 Z " />
<glyph glyph-name="uni0449" unicode="&#x449;" horiz-adv-x="718" d="M636 479 L636 54 L672 54 C690 54 704 39 704 21 L704 -111 C704 -129 690 -143 672 -143 C654 -143 639 -129 639 -111 L639 1 L109 1 C91 1 76 15 76 33 L76 479 C76 498 91 512 109 512 C127 512 141 498 141 479 L141 54 L324 54 L324 479 C324 497 338 512 357 512 C374 512 389 497 389 479 L389 54 L571 54 L571 479 C571 498 586 512 604 512 C622 512 636 498 636 479 L636 479 Z " />
<glyph glyph-name="uni044A" unicode="&#x44a;" horiz-adv-x="528" d="M136 449 L44 449 C27 449 14 462 14 477 C14 494 28 506 44 506 L172 506 C189 506 201 494 201 477 L201 294 L315 294 C439 294 491 240 491 144 C491 60 437 1 328 1 L169 1 C151 1 136 15 136 33 L136 449 L136 449 Z M315 241 L201 241 L201 55 L326 55 C392 55 427 83 427 147 C427 193 409 241 315 241 L315 241 Z " />
<glyph glyph-name="uni044B" unicode="&#x44b;" horiz-adv-x="654" d="M142 479 L142 294 L256 294 C380 294 432 240 432 144 C432 60 378 1 269 1 L110 1 C92 1 77 15 77 33 L77 479 C77 497 92 512 110 512 C128 512 142 497 142 479 L142 479 Z M256 241 L142 241 L142 55 L267 55 C333 55 368 83 368 147 C368 193 350 241 256 241 L256 241 Z M584 25 C584 7 570 -7 552 -7 C534 -7 520 7 520 25 L520 479 C520 497 534 512 552 512 C570 512 584 497 584 479 L584 25 L584 25 Z " />
<glyph glyph-name="uni044C" unicode="&#x44c;" horiz-adv-x="472" d="M143 479 L143 294 L257 294 C382 294 433 240 433 144 C433 60 379 1 270 1 L111 1 C93 1 79 15 79 33 L79 479 C79 497 93 512 111 512 C129 512 143 497 143 479 L143 479 Z M257 241 L143 241 L143 55 L268 55 C334 55 369 83 369 147 C369 193 352 241 257 241 L257 241 Z " />
<glyph glyph-name="uni044D" unicode="&#x44d;" horiz-adv-x="393" d="M282 227 L117 227 C100 227 87 239 87 255 C87 271 100 283 117 283 L282 283 L282 319 C282 406 251 457 172 457 C131 457 104 444 75 432 L76 432 C72 431 68 430 62 430 C47 430 34 442 34 457 C34 500 131 512 181 512 C296 512 346 428 346 319 L346 184 C346 76 296 -7 181 -7 C131 -7 34 5 34 47 C34 62 47 75 62 75 C66 75 70 74 76 72 L75 72 C103 60 129 48 172 48 C251 48 282 99 282 184 L282 227 L282 227 Z " />
<glyph glyph-name="uni044E" unicode="&#x44e;" horiz-adv-x="681" d="M142 25 C142 7 127 -7 110 -7 C91 -7 77 7 77 25 L77 479 C77 497 91 512 110 512 C127 512 142 497 142 479 L142 289 L271 289 L271 339 C271 438 336 515 456 515 C577 515 641 438 641 339 L641 168 C641 69 577 -7 456 -7 C336 -7 271 69 271 168 L271 236 L142 236 L142 25 L142 25 Z M456 52 C536 52 576 96 576 168 L576 340 C576 412 536 457 456 457 C377 457 336 412 336 340 L336 168 C336 96 377 52 456 52 L456 52 Z " />
<glyph glyph-name="uni044F" unicode="&#x44f;" horiz-adv-x="487" d="M382 -7 C363 -7 349 7 349 25 L349 213 L248 213 C206 148 158 72 113 8 C106 -1 96 -7 86 -7 C69 -7 56 3 55 19 C55 23 57 34 60 38 L180 216 C94 235 59 285 59 362 C59 447 114 506 223 506 L382 506 C399 506 414 491 414 473 L414 25 C414 7 399 -7 382 -7 L382 -7 Z M123 359 C123 314 141 266 237 266 L349 266 L349 452 L225 452 C159 452 123 423 123 359 L123 359 Z " />
<glyph glyph-name="uni0450" unicode="&#x450;" horiz-adv-x="433" d="M236 48 C282 48 310 61 346 77 C348 78 353 80 357 80 C373 80 385 66 385 52 C385 7 279 -7 226 -7 C114 -7 50 64 50 156 L50 348 C50 443 114 515 232 515 C341 515 394 452 394 355 C394 265 345 210 228 210 C195 210 154 213 115 221 L115 150 C115 89 156 48 236 48 L236 48 Z M330 355 C330 428 293 458 229 458 C157 458 115 418 115 356 L115 271 C158 265 211 263 232 263 C316 263 330 308 330 355 L330 355 Z M175 716 L261 625 C264 622 265 618 265 615 C265 599 252 587 239 587 C228 587 220 593 211 603 L130 691 C127 695 126 700 126 703 C126 718 139 730 150 730 C161 730 166 724 175 716 L175 716 Z " />
<glyph glyph-name="uni0451" unicode="&#x451;" horiz-adv-x="433" d="M236 48 C282 48 310 61 346 77 C348 78 353 80 357 80 C373 80 385 66 385 52 C385 7 279 -7 226 -7 C114 -7 50 64 50 156 L50 348 C50 443 114 515 232 515 C341 515 394 452 394 355 C394 265 345 210 228 210 C195 210 154 213 115 221 L115 150 C115 89 156 48 236 48 L236 48 Z M330 355 C330 428 293 458 229 458 C157 458 115 418 115 356 L115 271 C158 265 211 263 232 263 C316 263 330 308 330 355 L330 355 Z M366 646 C366 622 348 604 326 604 C304 604 284 623 284 646 C284 667 304 687 326 687 C348 687 366 668 366 646 L366 646 Z M193 646 C193 622 175 604 152 604 C130 604 112 623 112 646 C112 667 130 687 152 687 C175 687 193 668 193 646 L193 646 Z " />
<glyph glyph-name="uni0452" unicode="&#x452;" horiz-adv-x="582" d="M445 14 L445 299 C445 382 417 425 348 425 C305 425 255 404 221 359 L221 25 C221 7 207 -7 190 -7 C171 -7 157 7 157 25 L157 588 L60 588 C42 588 29 601 29 617 C29 634 42 648 60 648 L157 648 L157 706 C157 722 170 739 189 739 C206 739 221 725 221 706 L221 648 L316 648 C333 648 345 634 345 617 C345 601 333 588 316 588 L221 588 L221 432 C263 465 311 484 358 484 C463 484 510 408 510 300 L510 19 C510 -109 458 -191 372 -208 C364 -209 360 -208 353 -208 C341 -208 330 -200 327 -188 C322 -165 341 -155 355 -152 C412 -134 445 -90 445 14 L445 14 Z " />
<glyph glyph-name="uni0453" unicode="&#x453;" horiz-adv-x="372" d="M144 449 L144 25 C144 7 129 -7 112 -7 C93 -7 79 7 79 25 L79 477 C79 494 92 506 109 506 L341 506 C356 506 370 494 370 477 C370 462 357 449 341 449 L144 449 L144 449 Z M200 625 L287 716 C293 722 300 730 310 730 C324 730 335 716 335 703 C335 699 334 694 332 691 L250 604 C240 594 234 587 223 587 C208 587 196 600 196 615 C196 619 197 621 200 625 L200 625 Z " />
<glyph glyph-name="uni0454" unicode="&#x454;" horiz-adv-x="390" d="M281 227 L115 227 L115 184 C115 99 146 48 226 48 C269 48 295 60 322 72 L321 72 C328 74 332 75 336 75 C351 75 363 62 363 47 C363 5 266 -7 217 -7 C101 -7 50 76 50 184 L50 319 C50 428 101 512 217 512 C266 512 363 500 363 457 C363 442 351 430 336 430 C330 430 326 431 321 432 L322 432 C294 444 267 457 226 457 C146 457 115 406 115 319 L115 283 L281 283 C298 283 310 271 310 255 C310 239 298 227 281 227 L281 227 Z " />
<glyph glyph-name="uni0455" unicode="&#x455;" horiz-adv-x="416" d="M59 374 C59 459 114 515 218 515 C269 515 347 503 347 465 C347 449 335 436 318 436 C312 436 308 438 303 440 C280 451 260 460 221 460 C153 460 122 432 122 379 C122 343 136 325 175 304 C254 265 362 255 362 135 C362 47 306 -7 197 -7 C146 -7 52 3 52 44 C52 59 64 74 83 74 C85 74 86 74 89 73 C119 61 152 48 197 48 C258 48 299 73 299 132 C299 174 280 193 258 205 C180 244 59 254 59 374 L59 374 Z " />
<glyph glyph-name="uni0456" unicode="&#x456;" horiz-adv-x="245" d="M165 681 C165 659 146 640 124 640 C100 640 82 659 82 681 C82 705 100 723 124 723 C146 723 165 705 165 681 L165 681 Z M156 25 C156 7 141 -7 124 -7 C105 -7 91 7 91 25 L91 479 C91 497 105 512 124 512 C141 512 156 497 156 479 L156 25 L156 25 Z " />
<glyph glyph-name="uni0457" unicode="&#x457;" horiz-adv-x="245" d="M156 25 C156 7 141 -7 124 -7 C105 -7 91 7 91 25 L91 479 C91 497 105 512 124 512 C141 512 156 497 156 479 L156 25 L156 25 Z M267 631 C267 604 246 583 221 583 C195 583 173 605 173 631 C173 655 195 677 221 677 C246 677 267 656 267 631 L267 631 Z M73 631 C73 604 53 583 27 583 C1 583 -19 605 -19 631 C-19 655 1 677 27 677 C53 677 73 656 73 631 L73 631 Z " />
<glyph glyph-name="uni0458" unicode="&#x458;" horiz-adv-x="245" d="M170 479 L170 -23 C170 -124 116 -194 31 -208 C23 -209 19 -208 13 -208 C1 -208 -11 -200 -14 -188 C-19 -165 -2 -155 11 -153 C71 -139 105 -107 105 -27 L105 479 C105 497 119 512 138 512 C155 512 170 497 170 479 L170 479 Z M179 681 C179 659 160 640 138 640 C114 640 95 659 95 681 C95 705 114 723 138 723 C160 723 179 705 179 681 L179 681 Z " />
<glyph glyph-name="uni0459" unicode="&#x459;" horiz-adv-x="737" d="M404 506 C421 506 436 491 436 473 L436 294 L528 294 C653 294 705 240 705 144 C705 60 651 1 542 1 L404 1 C385 1 371 15 371 33 L371 453 L214 453 L190 162 C182 62 150 -4 74 -4 C46 -4 18 -3 18 24 C18 46 34 56 49 56 L55 56 C57 56 58 55 62 55 C104 55 123 87 128 154 L155 472 C158 497 175 506 187 506 L404 506 L404 506 Z M528 241 L436 241 L436 55 L540 55 C606 55 641 83 641 147 C641 193 623 241 528 241 L528 241 Z " />
<glyph glyph-name="uni045A" unicode="&#x45a;" horiz-adv-x="722" d="M142 25 C142 7 127 -7 110 -7 C91 -7 77 7 77 25 L77 479 C77 497 91 512 110 512 C127 512 142 497 142 479 L142 289 L355 289 L355 479 C355 497 369 512 388 512 C405 512 420 497 420 479 L420 289 L513 289 C637 289 689 237 689 144 C689 60 635 1 526 1 L388 1 C369 1 355 15 355 33 L355 236 L142 236 L142 25 L142 25 Z M513 236 L420 236 L420 55 L524 55 C591 55 625 83 625 147 C625 191 607 236 513 236 L513 236 Z " />
<glyph glyph-name="uni045B" unicode="&#x45b;" horiz-adv-x="582" d="M345 617 C345 601 333 588 316 588 L221 588 L221 432 C263 465 311 484 358 484 C463 484 510 416 510 321 L510 25 C510 7 496 -7 478 -7 C460 -7 445 7 445 25 L445 319 C445 389 417 425 348 425 C305 425 255 404 221 359 L221 25 C221 7 207 -7 190 -7 C171 -7 157 7 157 25 L157 588 L60 588 C42 588 29 601 29 617 C29 634 42 648 60 648 L157 648 L157 706 C157 722 170 739 189 739 C206 739 221 725 221 706 L221 648 L316 648 C333 648 345 634 345 617 L345 617 Z " />
<glyph glyph-name="uni045C" unicode="&#x45c;" horiz-adv-x="436" d="M144 25 C144 7 129 -7 112 -7 C93 -7 79 7 79 25 L79 479 C79 497 93 512 112 512 C129 512 144 497 144 479 L144 289 L219 289 L355 495 C362 506 371 511 382 511 C399 511 412 501 412 484 C412 477 410 470 407 465 L263 251 L407 38 C410 34 413 24 413 19 C414 3 399 -7 382 -7 C370 -7 361 -2 355 8 L204 236 L144 236 L144 25 L144 25 Z M220 625 L307 716 C313 722 320 730 330 730 C344 730 355 716 355 703 C355 699 354 694 352 691 L270 604 C260 594 254 587 243 587 C228 587 216 600 216 615 C216 619 217 621 220 625 L220 625 Z " />
<glyph glyph-name="uni045D" unicode="&#x45d;" horiz-adv-x="530" d="M116 -9 C94 -9 78 7 78 28 L78 478 C78 497 92 513 110 513 C129 513 143 497 143 478 L143 104 L386 492 C394 505 407 513 423 513 C443 513 458 497 458 475 L458 25 C458 6 443 -9 426 -9 C407 -9 393 6 393 25 L393 398 L152 10 C144 -1 131 -9 116 -9 L116 -9 Z M221 716 L307 625 C310 622 311 618 311 615 C311 599 298 587 285 587 C274 587 266 593 257 603 L176 691 C173 695 172 700 172 703 C172 718 185 730 196 730 C207 730 212 724 221 716 L221 716 Z " />
<glyph glyph-name="uni045E" unicode="&#x45e;" horiz-adv-x="412" d="M399 469 L273 60 C227 -86 181 -202 58 -202 C38 -202 24 -189 24 -171 C24 -156 35 -141 54 -140 C125 -137 154 -103 187 -5 L23 471 C20 474 20 479 20 482 C20 500 35 512 53 512 C65 512 77 503 82 491 L218 76 C254 203 302 363 338 491 C344 502 356 512 368 512 C384 512 400 499 400 479 C400 474 399 471 399 469 L399 469 Z M208 632 C232 632 257 645 280 677 C287 687 296 691 305 691 C318 691 330 683 324 662 C310 612 252 585 208 585 C165 585 100 611 90 662 C86 680 100 691 111 691 C120 691 129 687 135 677 C159 645 181 632 208 632 L208 632 Z " />
<glyph glyph-name="uni045F" unicode="&#x45f;" horiz-adv-x="504" d="M288 -111 C288 -129 273 -143 256 -143 C237 -143 223 -129 223 -111 L223 1 L112 1 C93 1 79 15 79 33 L79 481 C79 500 93 514 112 514 C129 514 143 500 143 481 L143 54 L367 54 L367 481 C367 500 382 514 400 514 C418 514 432 500 432 481 L432 33 C432 15 418 1 400 1 L288 1 L288 -111 L288 -111 Z " />
<glyph glyph-name="uni0462" unicode="&#x462;" horiz-adv-x="644" d="M456 623 C456 606 441 592 423 592 L235 592 L235 421 L360 421 C495 421 582 346 582 213 C582 102 524 1 360 1 L210 1 C188 1 168 19 168 42 L168 592 L63 592 C44 592 29 607 29 622 C29 639 45 656 63 656 L168 656 L168 734 C168 751 184 767 202 767 C220 767 235 751 235 734 L235 656 L423 656 C440 656 456 642 456 623 L456 623 Z M235 65 L360 65 C487 65 516 140 516 212 C516 310 463 357 360 357 L235 357 L235 65 L235 65 Z " />
<glyph glyph-name="uni0463" unicode="&#x463;" horiz-adv-x="582" d="M345 566 C345 549 333 537 316 537 L222 537 L222 345 L335 345 C459 345 511 283 511 177 C511 71 458 1 348 1 L190 1 C171 1 157 15 157 33 L157 537 L60 537 C42 537 29 550 29 567 C29 583 42 597 60 597 L157 597 L157 696 C157 714 171 729 190 729 C207 729 222 714 222 696 L222 597 L316 597 C333 597 345 582 345 566 L345 566 Z M335 293 L222 293 L222 55 L346 55 C412 55 447 94 447 176 C447 233 431 293 335 293 L335 293 Z " />
<glyph glyph-name="uni0490" unicode="&#x490;" horiz-adv-x="430" d="M79 668 C79 688 95 707 118 707 L361 707 L361 807 C361 825 376 841 395 841 C413 841 427 825 427 807 L427 674 C427 657 413 643 396 643 L145 643 L145 25 C145 7 131 -8 113 -8 C94 -8 79 7 79 25 L79 668 L79 668 Z " />
<glyph glyph-name="uni0491" unicode="&#x491;" horiz-adv-x="375" d="M308 506 L308 613 C308 632 322 646 341 646 C358 646 373 632 373 613 L373 481 C373 464 358 449 341 449 L144 449 L144 25 C144 7 129 -7 112 -7 C93 -7 79 7 79 25 L79 477 C79 494 92 506 109 506 L308 506 L308 506 Z " />
</font>
</svg>
